慢慢游社区

 找回密码
 我要注册
搜索
查看: 758|回复: 63

[音频组作品] [百度/115盘][佳片分享][日本][情书][Love.Letter.1995.爱情/剧情/BluRay.1080p.H265.AC3-GYLZ/mkv/3.69GB][国日双语双国配中字]

  [复制链接]

签到天数: 1838 天

[LV.Master]伴坛终老

168

主题

3003

帖子

6万

积分

一个一直走在路上寂寞并快乐着的影视工作者

Rank: 64Rank: 64Rank: 64Rank: 64Rank: 64Rank: 64Rank: 64Rank: 64Rank: 64Rank: 64Rank: 64Rank: 64Rank: 64Rank: 64Rank: 64Rank: 64

阅读权限
255
游币
21616
精品值
18087
热心值
3
分享值
567
在线时间
1910 小时
注册时间
2015-10-16
最后登录
2021-10-22

活跃会员热心会员突出贡献正太勋章色狼勋章猥琐勋章大叔勋章音频组专属勋章爱心勋章灌水之王最佳新人子鼠御姐勋章色女勋章纯洁勋章萝莉勋章处女座卯兔射手座

发表于 2021-10-8 20:09:58 | 显示全部楼层 |阅读模式
本帖最后由 光影流转 于 2021-10-8 22:33 编辑
视频源自BTPT
上译公映国语自收藏          匹配时长1:56:16
中影公映国语取自流媒体                 1:56:16
音轨调制后资源HEVC-10bit压制封装

引言这几天日本影片《情书》在流媒体挺热门,看了一下流媒体的资源基本都是新版中影公映国语,重译配的质量相当不错(音效好),而这部电影当年也是我十分钟爱的一部爱情片。(当年译制版本为丁建华、童自荣版上译公映国语)上译这版除了音效(有点电流声)、少许删节原音替代,逊色些外,还是别有时代韵味的,能勾起一代人满满的怀旧情结。。。于是调制了这版双国语版本,仅供大家赏析!

影片看点
影片最大的看点就是故事创意视角,把一段挺平常的爱情过往,打造成一段人们对往昔青涩时光的追忆,于是促成了这部爱情影片的成功。《情书》的灵感来自一部黑白作品,铃木清顺1959年的同名短片《Love Letter》,1995年在日本上映时极为轰动。中山美穗凭此片荣获日本蓝丝带奖最佳女主角奖,柏原崇及酒井美纪亦因此片而人气急升,本片配乐更是细腻动人,实为当年最出色的爱情电影。电影背景音乐是钢琴独奏“一个冬天的故事(A Winter Story)”,这段钢琴曲是由年仅8岁的牧野由依弹奏。

                                  情书 Love Letter (1995)
慢慢游社区_360截图20211004183105322.jpg
影片信息

译  名 情书
片  名 Love Letter
年  代 1995
国  家 日本
类  别 爱情/剧情
语  言 上译公映国语 / 中影公映国语 / 日语
字  幕 中文
文件格式 mkv
视频尺寸 1920X1080
文件大小 3.69GB
IMDB评分 7.9/10(8,079 votes)
豆瓣评分 8.9/10 867029人评 No.67豆瓣电影Top250
片  长 1h:56m:31s
导  演 岩井俊二 Shunji Iwai
主  演 中山美穗 Miho Nakayama  ....藤井树/渡边博子 Itsuki Fujii/Hiroko Watanabe
     丰川悦司 Etsushi Toyokawa  ....Akiba Shigeru
     柏原崇 Takashi Kashiwabara  ....男藤井树 Male itsukifujii
     酒井美纪 Miki Sakai  ....少女藤井树 ItsukiFujii as a young girl
     范文雀 Bunjaku Han  ....Female itsuki's mother
     光石研 Ken Mitsuishi  ....Abekasu
     铃木庆一 Keiichi Suzuki  ....Male itsuki's father
     田口智朗 Tomorowo Taguchi  ....Female itsuki's father
     神户浩 Hiroshi Kanbe  ....Haruo
     盐见三省 Sansei Shiomi  ....Kajioyaji
     铃木兰兰 Ranran Suzuki  ....Sanae Oikawa
     篠原胜之 Katsuyuki Shinohara  ....Female itsuki's grandfather
     Emiko Nagata  ....Harumi
     Kaori Oguri  ....Suzumi
     Naoki Gotô  ....Ootomo
     酒井敏也 Toshiya Sakai  ....Driver
     加贺麻理子 Mariko Kaga  ....Male itsuki's mother
     中村久美 Kumi Nakamura  ....Hamaguchi, teacher
剧情介绍
日本神户某个飘雪的冬日,渡边博子(中山美穗 饰)在前未婚夫藤井树的三周年祭日上又一次悲痛到不能自已。正因为无法抑制住对已逝恋人的思念,渡边博子在其中学同学录里发现“藤井树” 在小樽市读书时的地址时,依循着寄发了一封本以为是发往天国的情书。不想不久渡边博子竟然收到署名为“藤井树(中山美穗 饰)的回信,经过进一步了解,她知晓此藤井树是一个同她年纪相仿的女孩,且还是男友藤井树(柏原崇 饰)少年时代的同班同学。为了多了解一些昔日恋人在中学时代的情况,渡边博子开始与女性藤井树书信往来。而藤井树在不断的回忆中,渐渐发现少年时代与她同名同姓的那个藤井树曾对自己藏了一腔柔情。

影片评价
同很多日本电影一样,《情书》也反映了死亡。可以说《情书》的故事情节始终是围绕着生死而展开的,但与众不同的是,它并没有刻意去表现死亡的恐怖与残酷。男性藤井树的遇难,少女藤井树父亲的去逝都被淡化为一种哀思和怀念。而影片对女性藤井树的病危、抢救过程却着墨颇多,意在通过这种生死较量的情节衬托出生命的珍贵。

影片缩略图
慢慢游社区_情书.Love.Letter.1995.BluRay.1080p.H265.AC3-GYLZ.mkv.png
  1. //music.163.com/style/swf/widget.swf?sid=22712632&type=2&auto=1&width=320&height=66



  2. General
  3. Unique ID                      : 119698349973392742459556625723142912500 (0x5A0D104B6A61B14DF5117D2F58D339F4)
  4. Complete name                  : E:\Users\hp\情书.Love.Letter.1995.BluRay.1080p.H265.AC3-GYLZ.mkv
  5. Format                         : Matroska
  6. Format version                 : Version 4
  7. File size                      : 3.69 GiB
  8. Duration                       : 1 h 56 min
  9. Overall bit rate               : 4 540 kb/s
  10. Encoded date                   : UTC 2021-10-08 18:40:16
  11. Writing application            : mkvmerge v43.0.0 ('The Quartermaster') 64-bit
  12. Writing library                : libebml v1.3.10 + libmatroska v1.5.2

  13. Video
  14. ID                             : 2
  15. Format                         : HEVC
  16. Format/Info                    : High Efficiency Video Coding
  17. Format profile                 : Main 10@L4@Main
  18. Codec ID                       : V_MPEGH/ISO/HEVC
  19. Duration                       : 1 h 56 min
  20. Bit rate                       : 4 016 kb/s
  21. Width                          : 1 920 pixels
  22. Height                         : 798 pixels
  23. Display aspect ratio           : 2.40:1
  24. Frame rate mode                : Constant
  25. Frame rate                     : 23.976 (24000/1001) FPS
  26. Color space                    : YUV
  27. Chroma subsampling             : 4:2:0
  28. Bit depth                      : 10 bits
  29. Bits/(Pixel*Frame)             : 0.109
  30. Stream size                    : 3.26 GiB (88%)
  31. Title                          : 视频源
  32. Writing library                : x265 3.4+33-5fa76b3fc:[Windows][GCC 5.4.0][64 bit] 10bit
  33. Encoding settings              : cpuid=1111039 / frame-threads=2 / numa-pools=6 / wpp / no-pmode / no-pme / no-psnr / no-ssim / log-level=2 / input-csp=1 / input-res=1920x798 / interlace=0 / total-frames=0 / level-idc=0 / high-tier=1 / uhd-bd=0 / ref=1 / no-allow-non-conformance / no-repeat-headers / annexb / no-aud / no-hrd / info / hash=0 / no-temporal-layers / open-gop / min-keyint=23 / keyint=250 / gop-lookahead=0 / bframes=3 / b-adapt=0 / b-pyramid / bframe-bias=0 / rc-lookahead=5 / lookahead-slices=5 / scenecut=0 / hist-scenecut=0 / radl=0 / no-splice / no-intra-refresh / ctu=32 / min-cu-size=16 / no-rect / no-amp / max-tu-size=32 / tu-inter-depth=1 / tu-intra-depth=1 / limit-tu=0 / rdoq-level=0 / dynamic-rd=0.00 / no-ssim-rd / no-signhide / no-tskip / nr-intra=0 / nr-inter=0 / no-constrained-intra / strong-intra-smoothing / max-merge=2 / limit-refs=0 / no-limit-modes / me=0 / subme=0 / merange=57 / temporal-mvp / no-frame-dup / no-hme / no-weightp / no-weightb / no-analyze-src-pics / deblock=0:0 / no-sao / no-sao-non-deblock / rd=2 / selective-sao=0 / early-skip / rskip / fast-intra / no-tskip-fast / no-cu-lossless / no-b-intra / no-splitrd-skip / rdpenalty=0 / psy-rd=2.00 / psy-rdoq=0.00 / no-rd-refine / no-lossless / cbqpoffs=0 / crqpoffs=0 / rc=abr / bitrate=4000 / qcomp=0.60 / qpstep=4 / stats-write=0 / stats-read=0 / ipratio=1.40 / pbratio=1.30 / aq-mode=1 / aq-strength=0.00 / cutree / zone-count=0 / no-strict-cbr / qg-size=32 / no-rc-grain / qpmax=69 / qpmin=0 / no-const-vbv / sar=1 / overscan=0 / videoformat=5 / range=0 / colorprim=2 / transfer=2 / colormatrix=2 / chromaloc=0 / display-window=0 / cll=0,0 / min-luma=0 / max-luma=1023 / log2-max-poc-lsb=8 / vui-timing-info / vui-hrd-info / slices=1 / no-opt-qp-pps / no-opt-ref-list-length-pps / no-multi-pass-opt-rps / scenecut-bias=0.05 / hist-threshold=0.03 / no-opt-cu-delta-qp / no-aq-motion / no-hdr10 / no-hdr10-opt / no-dhdr10-opt / no-idr-recovery-sei / analysis-reuse-level=0 / analysis-save-reuse-level=0 / analysis-load-reuse-level=0 / scale-factor=0 / refine-intra=0 / refine-inter=0 / refine-mv=1 / refine-ctu-distortion=0 / no-limit-sao / ctu-info=0 / no-lowpass-dct / refine-analysis-type=0 / copy-pic=1 / max-ausize-factor=1.0 / no-dynamic-refine / no-single-sei / no-hevc-aq / no-svt / no-field / qp-adaptation-range=1.00 / no-scenecut-aware-qpconformance-window-offsets / right=0 / bottom=0 / decoder-max-rate=0 / no-vbv-live-multi-pass
  34. Default                        : Yes
  35. Forced                         : No
  36. Color range                    : Limited

  37. Audio #1
  38. ID                             : 1
  39. Format                         : AC-3
  40. Format/Info                    : Audio Coding 3
  41. Commercial name                : Dolby Digital
  42. Codec ID                       : A_AC3
  43. Duration                       : 1 h 56 min
  44. Bit rate mode                  : Constant
  45. Bit rate                       : 192 kb/s
  46. Channel(s)                     : 2 channels
  47. Channel layout                 : L R
  48. Sampling rate                  : 48.0 kHz
  49. Frame rate                     : 31.250 FPS (1536 SPF)
  50. Compression mode               : Lossy
  51. Stream size                    : 160 MiB (4%)
  52. Title                          : 上译公映国语
  53. Language                       : Chinese
  54. Service kind                   : Complete Main
  55. Default                        : Yes
  56. Forced                         : No

  57. Audio #2
  58. ID                             : 4
  59. Format                         : AC-3
  60. Format/Info                    : Audio Coding 3
  61. Commercial name                : Dolby Digital
  62. Codec ID                       : A_AC3
  63. Duration                       : 1 h 56 min
  64. Bit rate mode                  : Constant
  65. Bit rate                       : 192 kb/s
  66. Channel(s)                     : 2 channels
  67. Channel layout                 : L R
  68. Sampling rate                  : 48.0 kHz
  69. Frame rate                     : 31.250 FPS (1536 SPF)
  70. Compression mode               : Lossy
  71. Stream size                    : 160 MiB (4%)
  72. Title                          : 中影公映国语
  73. Language                       : Chinese
  74. Service kind                   : Complete Main
  75. Default                        : No
  76. Forced                         : No

  77. Audio #3
  78. ID                             : 5
  79. Format                         : AAC LC
  80. Format/Info                    : Advanced Audio Codec Low Complexity
  81. Codec ID                       : A_AAC-2
  82. Duration                       : 1 h 56 min
  83. Bit rate                       : 128 kb/s
  84. Channel(s)                     : 2 channels
  85. Channel layout                 : L R
  86. Sampling rate                  : 48.0 kHz
  87. Frame rate                     : 46.875 FPS (1024 SPF)
  88. Compression mode               : Lossy
  89. Stream size                    : 106 MiB (3%)
  90. Title                          : 日语
  91. Language                       : Japanese
  92. Default                        : No
  93. Forced                         : No

  94. Text
  95. ID                             : 3
  96. Format                         : PGS
  97. Muxing mode                    : zlib
  98. Codec ID                       : S_HDMV/PGS
  99. Codec ID/Info                  : Picture based subtitle format used on BDs/HD-DVDs
  100. Duration                       : 1 h 52 min
  101. Bit rate                       : 19.1 kb/s
  102. Count of elements              : 2852
  103. Stream size                    : 15.3 MiB (0%)
  104. Title                          : 简体中字
  105. Language                       : Chinese
  106. Default                        : Yes
  107. Forced                         : No

复制代码



资源获取:链接:>>点击进入百度云下载<<(←购买前请先验证分享链接是否有效)

                         https://115.com/s/swn5m39330z#
游客,需要您回复成为VIP才能查看隐藏内容


点评

今天网上下了个4K版的清晰度跟版主的也没什么区别,体积还死大哎!!  发表于 2021-10-18 20:50

评分

参与人数 8游币 +115 分享值 +8 收起 理由
保罗莫里哀 + 1
bobystrong + 1
1002110993 + 1 神马都是浮云,资源才是硬道理!.
我的幻想猫 + 1 慢慢游有你更精彩!
shover + 1 慢慢游有你更精彩!
TS天高云淡 + 115 + 1 这情书蕴含了太多的故事!果断洗版!.
StarrySky + 1 神马都是浮云,资源才是硬道理!.
星空凤凰 + 1

查看全部评分

楼主精华帖
处女座→爱音乐→爱电影→更爱慢慢游!
回复

使用道具 举报

签到天数: 508 天

[LV.9]以坛为家II

0

主题

596

帖子

1580

积分

Rank: 8Rank: 8

阅读权限
50
游币
817
精品值
0
热心值
0
分享值
0
在线时间
167 小时
注册时间
2014-11-24
最后登录
2021-10-24
发表于 2021-10-8 20:17:32 | 显示全部楼层
感谢,非常喜欢
回复 支持 反对

使用道具 举报

签到天数: 1304 天

[LV.10]以坛为家III

10

主题

3470

帖子

1万

积分

Rank: 32Rank: 32Rank: 32Rank: 32Rank: 32Rank: 32Rank: 32Rank: 32

阅读权限
90
游币
6892
精品值
136
热心值
0
分享值
1
在线时间
565 小时
注册时间
2017-10-1
最后登录
2021-10-25
发表于 2021-10-8 20:18:07 | 显示全部楼层
楼主发贴辛苦了,谢谢楼主的精彩分享!我觉得慢慢游是注册对了!
回复 支持 反对

使用道具 举报

签到天数: 2216 天

[LV.Master]伴坛终老

5

主题

3322

帖子

9642

积分

Rank: 16Rank: 16Rank: 16Rank: 16

阅读权限
70
游币
4761
精品值
179
热心值
0
分享值
0
在线时间
1201 小时
注册时间
2015-3-7
最后登录
2021-10-25

热心会员推广达人

发表于 2021-10-8 20:30:36 | 显示全部楼层
双国语的收藏了,感谢分享!
回复 支持 反对

使用道具 举报

签到天数: 1776 天

[LV.Master]伴坛终老

101

主题

5637

帖子

1万

积分

Rank: 32Rank: 32Rank: 32Rank: 32Rank: 32Rank: 32Rank: 32Rank: 32

阅读权限
90
游币
5194
精品值
604
热心值
4
分享值
47
在线时间
3068 小时
注册时间
2015-4-14
最后登录
2021-10-26
发表于 2021-10-8 20:32:02 | 显示全部楼层
楼主如此诚意的分享如此精彩的内容,必须赞!我想我是一天也不能离开慢慢游。
回复 支持 反对

使用道具 举报

该用户从未签到

14

主题

840

帖子

2095

积分

Rank: 8Rank: 8

阅读权限
50
游币
437
精品值
204
热心值
0
分享值
23
在线时间
364 小时
注册时间
2020-9-20
最后登录
2021-10-26
发表于 2021-10-8 20:42:12 来自手机 | 显示全部楼层
谢谢楼主分享。沒看过,下来看看。
回复 支持 反对

使用道具 举报

签到天数: 370 天

[LV.9]以坛为家II

2

主题

610

帖子

1万

积分

Rank: 32Rank: 32Rank: 32Rank: 32Rank: 32Rank: 32Rank: 32Rank: 32

阅读权限
90
游币
9298
精品值
370
热心值
0
分享值
13
在线时间
236 小时
注册时间
2020-10-9
最后登录
2021-10-25

最佳新人

发表于 2021-10-8 20:50:00 | 显示全部楼层
节日后一份满满的礼物啊!十分喜爱!感谢版主精彩影片分享!!
回复 支持 反对

使用道具 举报

签到天数: 663 天

[LV.9]以坛为家II

10

主题

1306

帖子

3万

积分

Rank: 32Rank: 32Rank: 32Rank: 32Rank: 32Rank: 32Rank: 32Rank: 32

阅读权限
150
游币
27619
精品值
147
热心值
0
分享值
0
在线时间
1662 小时
注册时间
2019-12-28
最后登录
2021-10-26
发表于 2021-10-8 20:50:48 | 显示全部楼层
楼主如此诚意的分享如此精彩的内容,必须赞!我想我是一天也不能离开慢慢游。
回复 支持 反对

使用道具 举报

签到天数: 1405 天

[LV.10]以坛为家III

0

主题

4287

帖子

1万

积分

Rank: 32Rank: 32Rank: 32Rank: 32Rank: 32Rank: 32Rank: 32Rank: 32

阅读权限
90
游币
4705
精品值
0
热心值
0
分享值
0
在线时间
2274 小时
注册时间
2017-7-5
最后登录
2021-10-26

活跃会员

发表于 2021-10-8 20:58:17 来自手机 | 显示全部楼层
资源好啊,多谢。
回复 支持 反对

使用道具 举报

签到天数: 371 天

[LV.9]以坛为家II

82

主题

1632

帖子

3万

积分

Rank: 32Rank: 32Rank: 32Rank: 32Rank: 32Rank: 32Rank: 32Rank: 32

阅读权限
90
游币
11200
精品值
7807
热心值
0
分享值
409
在线时间
1193 小时
注册时间
2020-10-3
最后登录
2021-10-26

最佳新人

发表于 2021-10-8 21:14:12 | 显示全部楼层
非常感谢大师!果断洗版!
回复 支持 反对

使用道具 举报

回帖须知
本站严禁灌水回复以及讽刺辱骂分享者的行为,轻者扣分警告,重者直接永久封禁。发帖前请详读:点击进入 。以免永久封禁。
 懒得打字?点击快捷回复➔➔ 
您需要登录后才可以回帖 登录 | 我要注册

本版积分规则

小黑屋|手机版|慢慢游社区 ( 站务处理service@mmyfilm.com )

GMT+8, 2021-10-26 13:03 , Processed in 0.287840 second(s), 30 queries .

Powered by Discuz! X3.4

© 2001-2013 Comsenz Inc.

快速回复 返回顶部 返回列表