慢慢游社区

 找回密码
 我要注册
搜索
查看: 2067|回复: 292

[完美匹配] 无权限扎克·施奈德版正义联盟 台配DD5.1-640Kbps/粤语DD5.1-384Kbps

  [复制链接]

签到天数: 33 天

[LV.5]常住居民I

552

主题

826

帖子

18万

积分

Rank: 64Rank: 64Rank: 64Rank: 64Rank: 64Rank: 64Rank: 64Rank: 64Rank: 64Rank: 64Rank: 64Rank: 64Rank: 64Rank: 64Rank: 64Rank: 64

阅读权限
150
游币
112628
精品值
32022
热心值
0
分享值
741
在线时间
2445 小时
注册时间
2015-4-15
最后登录
2021-10-26

热心会员推广达人宣传达人突出贡献优秀版主荣誉管理正太勋章色狼勋章猥琐勋章大叔勋章皇冠勋章音频组专属勋章风度翩翩勋章

发表于 2021-9-28 18:51:54 | 显示全部楼层 |阅读模式
本帖最后由 Autohome 于 2021-10-12 03:17 编辑

HBO台配、粤语由本人好友提供,在此感谢你的支持,本人调制,粤语权限10,台配降权限到10,不喜勿喷!!百度云盘满了,没地方存储了,只能上传天翼云,不喜勿喷!多余的话不说了,不是人人都有闲钱冲云盘!

慢慢游社区_1.jpg

扎克·施奈德版正义联盟 导演: 扎克·施奈德
编剧: 扎克·施奈德 / 克里斯·特里奥 / 威尔·比尔 / 杰里·西格尔 / 乔·舒斯特
主演: 本·阿弗莱克 / 亨利·卡维尔 / 盖尔·加朵 / 杰森·莫玛 / 埃兹拉·米勒 / [url=]更多...[/url]
类型: 动作 / 科幻 / 奇幻 / 冒险
制片国家/地区: 美国
语言: 英语
上映日期: 2021-05-03(中国大陆网络) / 2021-03-18(美国)
片长: 242分钟
又名: 正义联盟:扎克·施耐德版 / 萨克·薛达之正义联盟(港) / 查克·史奈德之正义联盟(台) / 正义联盟导演剪辑版 / 正义联盟 扎克·施奈德导演剪辑版 / Justice League Snyder Cut
IMDb: tt12361974


剧情简介 · · · · · ·  布鲁斯·韦恩(本·阿弗莱克饰)为了确保不让超人(亨利·卡维尔饰)白白牺牲,他决定与戴安娜·普林斯(盖尔·加朵饰)联手并计划招募一支超能力者团队来保护世界免遭即将到来的灾难性威胁。但这项任务比布鲁斯想象中要困难,因为每位成员都必须面对并跨越自己过去的心魔,团结起来,最终形成一个前所未有的英雄联盟。 蝙蝠侠、神奇女侠、海王(杰森·莫玛饰)、钢骨(雷·费舍饰)、闪电侠(埃兹拉·米勒饰)现在必须联合起来,否则就无法阻止荒原狼(塞伦·希德饰)、狄萨德(彼得·吉尼斯饰)以及达克赛德(雷·波特饰)毁灭地球的可怕计划。
General
Complete name                  : J:\扎版正义台配DD5.1-640Kbps.ac3
Format                         : AC-3
Format/Info                    : Audio Coding 3
Commercial name                : Dolby Digital
File size                      : 1.08 GiB
Duration                       : 4 h 2 min
Overall bit rate mode          : Constant
Overall bit rate               : 640 kb/s


Audio
Format                         : AC-3
Format/Info                    : Audio Coding 3
Commercial name                : Dolby Digital
Duration                       : 4 h 2 min
Bit rate mode                  : Constant
Bit rate                       : 640 kb/s
Channel(s)                     : 6 channels
Channel layout                 : L R C LFE Ls Rs
Sampling rate                  : 48.0 kHz
Frame rate                     : 31.250 FPS (1536 SPF)
Compression mode               : Lossy
Stream size                    : 1.08 GiB (100%)
Service kind                   : Complete Main

General
Complete name                  : J:\扎版正义粤语DD5.1-384Kbps.ac3
Format                         : AC-3
Format/Info                    : Audio Coding 3
Commercial name                : Dolby Digital
File size                      : 665 MiB
Duration                       : 4 h 2 min
Overall bit rate mode          : Constant
Overall bit rate               : 384 kb/s


Audio
Format                         : AC-3
Format/Info                    : Audio Coding 3
Commercial name                : Dolby Digital
Duration                       : 4 h 2 min
Bit rate mode                  : Constant
Bit rate                       : 384 kb/s
Channel(s)                     : 6 channels
Channel layout                 : L R C LFE Ls Rs
Sampling rate                  : 48.0 kHz
Frame rate                     : 31.250 FPS (1536 SPF)
Compression mode               : Lossy
Stream size                    : 665 MiB (100%)
Service kind                   : Complete Main


匹配视频版本:04:02:08的片长,请自行寻找,谢谢






台配
https://cloud.189.cn/t/2eyuAv2auMbq (访问码:
游客,需要您回复成为VIP才能查看隐藏内容
)
粤语:
https://cloud.189.cn/t/mEVnYbE3yyIb (访问码:
游客,需要您回复成为VIP才能查看隐藏内容
)

点评

谢啦!就当买个教训吧  发表于 2021-10-8 17:21
上面写着 ,自己不看,怪谁,粤语权限10,台配降权限到50  发表于 2021-10-8 14:17
晕死,买了说没权限?楼主咋办呀?退币吗?还是。。。。。。?  发表于 2021-10-8 11:34
音轨延迟设置 -4450 可以匹配片长 04:02:15 的4K蓝光的前半部分(第一碟部分)  发表于 2021-10-7 00:47
扎版正义台粤英Justice League - The Snyder Cut (2021) 1080p UHD Q17 HMAX Web-Rip 10bit x265 HEVC 3AUDIO  发表于 2021-10-2 05:46

评分

参与人数 9游币 +706 分享值 +8 收起 理由
liu8618331 + 1 慢慢游有你更精彩!
晴朗a + 1
hexiong26032 + 300 + 1 这个是能匹配的magnet:?xt=urn:btih:94741A.
逍遥御 + 1 慢慢游有你更精彩!
刘浩天 + 100 + 1
koko73 + 5 + 1 慢慢游有你更精彩!
StarrySky + 1 神马都是浮云,资源才是硬道理!.
mymymy2006 + 1 显示连接无效,请修复,谢谢
马儿快点跑 + 300 + 1

查看全部评分

楼主精华帖
回复

使用道具 举报

签到天数: 51 天

[LV.5]常住居民I

0

主题

274

帖子

7218

积分

Rank: 32Rank: 32Rank: 32Rank: 32Rank: 32Rank: 32Rank: 32Rank: 32

阅读权限
150
游币
6506
精品值
109
热心值
0
分享值
0
在线时间
220 小时
注册时间
2019-5-8
最后登录
2021-10-24
发表于 2021-9-28 18:59:18 | 显示全部楼层
感谢楼主,分享经典
回复 支持 反对

使用道具 举报

签到天数: 182 天

[LV.7]常住居民III

0

主题

207

帖子

1095

积分

Rank: 8Rank: 8

阅读权限
50
游币
834
精品值
0
热心值
0
分享值
0
在线时间
54 小时
注册时间
2020-1-11
最后登录
2021-10-25
发表于 2021-9-28 18:59:15 | 显示全部楼层
谢谢楼主分享!!!!!
回复 支持 反对

使用道具 举报

签到天数: 574 天

[LV.9]以坛为家II

0

主题

605

帖子

2464

积分

Rank: 8Rank: 8

阅读权限
50
游币
1739
精品值
0
热心值
0
分享值
0
在线时间
120 小时
注册时间
2019-7-12
最后登录
2021-10-25
发表于 2021-9-28 19:03:19 | 显示全部楼层
都用电信网盘了
回复 支持 反对

使用道具 举报

签到天数: 2236 天

[LV.Master]伴坛终老

0

主题

2547

帖子

2万

积分

Rank: 32Rank: 32Rank: 32Rank: 32Rank: 32Rank: 32Rank: 32Rank: 32

阅读权限
90
游币
19536
精品值
109
热心值
0
分享值
0
在线时间
929 小时
注册时间
2014-11-9
最后登录
2021-10-25

活跃会员

发表于 2021-9-28 19:04:32 | 显示全部楼层
感谢楼主的无私分享!要想慢慢游好 就靠你我他
回复 支持 反对

使用道具 举报

签到天数: 1238 天

[LV.10]以坛为家III

0

主题

6461

帖子

1万

积分

Rank: 32Rank: 32Rank: 32Rank: 32Rank: 32Rank: 32Rank: 32Rank: 32

阅读权限
90
游币
1877
精品值
51
热心值
0
分享值
0
在线时间
1575 小时
注册时间
2018-2-24
最后登录
2021-10-26
发表于 2021-9-28 19:06:01 | 显示全部楼层
感谢楼主分享资源
回复 支持 反对

使用道具 举报

签到天数: 1 天

[LV.1]初来乍到

0

主题

52

帖子

2921

积分

Rank: 8Rank: 8

阅读权限
50
游币
2581
精品值
0
热心值
0
分享值
0
在线时间
288 小时
注册时间
2020-1-18
最后登录
2021-10-25
发表于 2021-9-28 19:07:52 | 显示全部楼层
楼主发贴辛苦了,谢谢楼主的精彩分享!我觉得慢慢游是注册对了!
回复 支持 反对

使用道具 举报

签到天数: 714 天

[LV.9]以坛为家II

0

主题

1190

帖子

2969

积分

Rank: 8Rank: 8

阅读权限
50
游币
1316
精品值
0
热心值
0
分享值
0
在线时间
463 小时
注册时间
2014-2-12
最后登录
2021-10-26
发表于 2021-9-28 19:17:28 | 显示全部楼层
我想下载,谢谢!
回复 支持 反对

使用道具 举报

签到天数: 1870 天

[LV.Master]伴坛终老

0

主题

3141

帖子

5281

积分

Rank: 16Rank: 16Rank: 16Rank: 16

阅读权限
70
游币
370
精品值
0
热心值
0
分享值
0
在线时间
1770 小时
注册时间
2015-10-1
最后登录
2021-10-26
发表于 2021-9-28 19:18:03 | 显示全部楼层
这东西我收了!谢谢楼主!有慢慢游真好!
回复 支持 反对

使用道具 举报

签到天数: 815 天

[LV.10]以坛为家III

0

主题

855

帖子

3797

积分

Rank: 8Rank: 8

阅读权限
50
游币
2669
精品值
0
热心值
0
分享值
0
在线时间
273 小时
注册时间
2018-12-1
最后登录
2021-10-25
发表于 2021-9-28 19:23:00 | 显示全部楼层
谢谢楼主分享国语音轨
回复 支持 反对

使用道具 举报

回帖须知
本站严禁灌水回复以及讽刺辱骂分享者的行为,轻者扣分警告,重者直接永久封禁。发帖前请详读:点击进入 。以免永久封禁。
 懒得打字?点击快捷回复➔➔ 
您需要登录后才可以回帖 登录 | 我要注册

本版积分规则

小黑屋|手机版|慢慢游社区 ( 站务处理service@mmyfilm.com )

GMT+8, 2021-10-26 14:14 , Processed in 0.183370 second(s), 31 queries .

Powered by Discuz! X3.4

© 2001-2013 Comsenz Inc.

快速回复 返回顶部 返回列表