慢慢游社区

 找回密码
 我要注册
搜索
查看: 703|回复: 52

[音频组作品] [百度/115盘][美国][狼来了][Cry.Wolf.2005.悬疑/惊悚/犯罪/1080p.BluRay.H265.AC3-GYLZ/mkv/2.8GB][国英双语中字]

  [复制链接]

签到天数: 1826 天

[LV.Master]伴坛终老

166

主题

2975

帖子

6万

积分

一个一直走在路上寂寞并快乐着的影视工作者

Rank: 64Rank: 64Rank: 64Rank: 64Rank: 64Rank: 64Rank: 64Rank: 64Rank: 64Rank: 64Rank: 64Rank: 64Rank: 64Rank: 64Rank: 64Rank: 64

阅读权限
255
游币
20462
精品值
17638
热心值
3
分享值
549
在线时间
1897 小时
注册时间
2015-10-16
最后登录
2021-9-20

活跃会员热心会员突出贡献正太勋章色狼勋章猥琐勋章大叔勋章音频组专属勋章爱心勋章灌水之王最佳新人子鼠御姐勋章色女勋章纯洁勋章萝莉勋章处女座卯兔射手座

发表于 2021-9-13 10:49:58 | 显示全部楼层 |阅读模式
本帖最后由 光影流转 于 2021-9-13 10:55 编辑
引言 国语音轨为自收藏东影上译国语
视频为蓝光盘HEVC-10bit自压制
自制SRT简体中字

影片看点
一群年轻人为了取乐在网络上传播有关某“杀人狂”的谣言,结果竟引来一位真正的连环杀手......凶手则充分利用学校和其特有魅力以愚人节为载体和掩护犯罪杀人的故事,可谓细思极恐。。。



                                              狼来了 Cry Wolf (2005)
慢慢游社区_360截图20210512175429311.jpg
影片信息

中文名:狼来了
外文名:Cry Wolf
其它译名:豺狼计划、恶狼ID、哭狼、哭泣杀狼 、狼踪
出品时间:2005年
发行公司:美国聚焦影业
导    演:杰夫·瓦德洛
编    剧:杰夫·瓦德洛、Beau Bauman
类    型:悬疑/惊悚/犯罪
片    长:90分钟
上映时间:2005年9月16日
对白语言:东影上译国语/英语
色    彩:彩色
Imdb编码:tt0384286
主    演:朱利安·莫里斯,林蒂·布丝,贾德·帕达里克,乔恩·邦·乔维,桑德拉·麦考伊......

剧情介绍
调皮捣蛋的欧文·马修斯(朱利安·莫里斯饰)新近转学来到了西湖中学,在这儿他很快找到了气味相投的同学圈落——“撒谎俱乐部”,该俱乐部的成员包括美丽聪慧的校花道吉(林蒂·布丝饰)、急性子的汤姆(贾德·帕达里克饰)等七个同学,课余他们爱聚在一起玩“狼吃羊”的角色扮演游戏:由指定的牧羊人在游戏参与者中选出一匹狼,然后在狼吃羊的谎言与自辩过程中推测出狼到底是谁。大家乐此不疲,认为这游戏对于伪装技巧和心理素质的培养极为有效。一名年轻女子的尸体在学校附近的密林中被发现,警方尚无凶手的线索,校园内一片恐慌。在欧文的建议下,俱乐部的成员们决定把“狼吃羊”的游戏直接升级为“杀人游戏”,他们通过网络编造了一个绰号为“恶狼”的变态杀人狂为此案的幕后真凶,每次他们都精心描绘出“恶狼”的下一个猎杀目标,而这个目标就是他们周围所熟悉的同学。他们深深陶醉于所编织的谎言中,想要看看这个谎言到底能让多少人上当,谁最终才能识破这个谎言,但令众人始料未及的是,所有被精心描绘过的下一个受害者都成为了真正的受害者,谎言离奇成真了,本来想要游戏别人的他们却成为了杀人狂的手中玩物......

影片评价
电脑及互联网的世界性的普及,已经使得很多人享受到了这一高科技带给人们的便捷与乐趣。然而,好莱坞的电影人们却将其融在了《狼来了》这部校园恐怖片中。故事的开端也颇能令人接受,学生们之间简单的网络交流便“自然而然”地引出了一系列的凶杀案。而死者的名字和死亡状态甚至都能在学生们的网络聊天记录中看到,简直悬而又悬。这更能勾起人们的观赏欲望,尤其是那些有着丰富网络角落经验的年轻人更是专注投情,影片没有直接照搬“狼来了”的故事,改编还颇有几分像模像样的味道。

影片缩略图
慢慢游社区_LangLaiLe.Cry.Wolf.2005.1080p.BluRay.H265.AC3-GYLZ.mkv.png
  1. General
  2. Unique ID                      : 271007521773774277529845702526497714919 (0xCBE2266F2BAC97924E70F99DEC4FF2E7)
  3. Complete name                  : E:\Users\hp\LangLaiLe.Cry.Wolf.2005.1080p.BluRay.H265.AC3-GYLZ.mkv
  4. Format                         : Matroska
  5. Format version                 : Version 4
  6. File size                      : 2.81 GiB
  7. Duration                       : 1 h 30 min
  8. Overall bit rate               : 4 452 kb/s
  9. Encoded date                   : UTC 2021-09-12 12:04:09
  10. Writing application            : mkvmerge v43.0.0 ('The Quartermaster') 64-bit
  11. Writing library                : libebml v1.3.10 + libmatroska v1.5.2

  12. Video
  13. ID                             : 2
  14. Format                         : HEVC
  15. Format/Info                    : High Efficiency Video Coding
  16. Format profile                 : Main 10@L4@Main
  17. Codec ID                       : V_MPEGH/ISO/HEVC
  18. Duration                       : 1 h 30 min
  19. Bit rate                       : 4 003 kb/s
  20. Width                          : 1 920 pixels
  21. Height                         : 800 pixels
  22. Display aspect ratio           : 2.40:1
  23. Frame rate mode                : Constant
  24. Frame rate                     : 24.000 FPS
  25. Color space                    : YUV
  26. Chroma subsampling             : 4:2:0
  27. Bit depth                      : 10 bits
  28. Bits/(Pixel*Frame)             : 0.109
  29. Stream size                    : 2.52 GiB (90%)
  30. Title                          : 视频源
  31. Writing library                : x265 3.4+12-geff904199:[Windows][GCC 5.4.0][64 bit] 10bit
  32. Encoding settings              : cpuid=1111039 / frame-threads=3 / numa-pools=8 / wpp / no-pmode / no-pme / no-psnr / no-ssim / log-level=2 / input-csp=1 / input-res=1920x800 / interlace=0 / total-frames=0 / level-idc=0 / high-tier=1 / uhd-bd=0 / ref=1 / no-allow-non-conformance / no-repeat-headers / annexb / no-aud / no-hrd / info / hash=0 / no-temporal-layers / open-gop / min-keyint=24 / keyint=250 / gop-lookahead=0 / bframes=3 / b-adapt=0 / b-pyramid / bframe-bias=0 / rc-lookahead=5 / lookahead-slices=5 / scenecut=0 / hist-scenecut=0 / radl=0 / no-splice / no-intra-refresh / ctu=32 / min-cu-size=16 / no-rect / no-amp / max-tu-size=32 / tu-inter-depth=1 / tu-intra-depth=1 / limit-tu=0 / rdoq-level=0 / dynamic-rd=0.00 / no-ssim-rd / no-signhide / no-tskip / nr-intra=0 / nr-inter=0 / no-constrained-intra / strong-intra-smoothing / max-merge=2 / limit-refs=0 / no-limit-modes / me=0 / subme=0 / merange=57 / temporal-mvp / no-frame-dup / no-hme / no-weightp / no-weightb / no-analyze-src-pics / deblock=0:0 / no-sao / no-sao-non-deblock / rd=2 / selective-sao=0 / early-skip / rskip / fast-intra / no-tskip-fast / no-cu-lossless / no-b-intra / no-splitrd-skip / rdpenalty=0 / psy-rd=2.00 / psy-rdoq=0.00 / no-rd-refine / no-lossless / cbqpoffs=0 / crqpoffs=0 / rc=abr / bitrate=4000 / qcomp=0.60 / qpstep=4 / stats-write=0 / stats-read=0 / ipratio=1.40 / pbratio=1.30 / aq-mode=1 / aq-strength=0.00 / cutree / zone-count=0 / no-strict-cbr / qg-size=32 / no-rc-grain / qpmax=69 / qpmin=0 / no-const-vbv / sar=1 / overscan=0 / videoformat=5 / range=0 / colorprim=2 / transfer=2 / colormatrix=2 / chromaloc=0 / display-window=0 / cll=0,0 / min-luma=0 / max-luma=1023 / log2-max-poc-lsb=8 / vui-timing-info / vui-hrd-info / slices=1 / no-opt-qp-pps / no-opt-ref-list-length-pps / no-multi-pass-opt-rps / scenecut-bias=0.05 / hist-threshold=0.03 / no-opt-cu-delta-qp / no-aq-motion / no-hdr10 / no-hdr10-opt / no-dhdr10-opt / no-idr-recovery-sei / analysis-reuse-level=0 / analysis-save-reuse-level=0 / analysis-load-reuse-level=0 / scale-factor=0 / refine-intra=0 / refine-inter=0 / refine-mv=1 / refine-ctu-distortion=0 / no-limit-sao / ctu-info=0 / no-lowpass-dct / refine-analysis-type=0 / copy-pic=1 / max-ausize-factor=1.0 / no-dynamic-refine / no-single-sei / no-hevc-aq / no-svt / no-field / qp-adaptation-range=1.00 / no-scenecut-aware-qpconformance-window-offsets / right=0 / bottom=0 / decoder-max-rate=0
  33. Default                        : Yes
  34. Forced                         : No
  35. Color range                    : Limited

  36. Audio #1
  37. ID                             : 1
  38. Format                         : AC-3
  39. Format/Info                    : Audio Coding 3
  40. Commercial name                : Dolby Digital
  41. Codec ID                       : A_AC3
  42. Duration                       : 1 h 30 min
  43. Bit rate mode                  : Constant
  44. Bit rate                       : 256 kb/s
  45. Channel(s)                     : 2 channels
  46. Channel layout                 : L R
  47. Sampling rate                  : 48.0 kHz
  48. Frame rate                     : 31.250 FPS (1536 SPF)
  49. Compression mode               : Lossy
  50. Stream size                    : 165 MiB (6%)
  51. Title                          : 东影上译国语
  52. Language                       : Chinese
  53. Service kind                   : Complete Main
  54. Default                        : Yes
  55. Forced                         : No

  56. Audio #2
  57. ID                             : 3
  58. Format                         : AAC LC
  59. Format/Info                    : Advanced Audio Codec Low Complexity
  60. Codec ID                       : A_AAC-2
  61. Duration                       : 1 h 30 min
  62. Bit rate                       : 192 kb/s
  63. Channel(s)                     : 2 channels
  64. Channel layout                 : L R
  65. Sampling rate                  : 48.0 kHz
  66. Frame rate                     : 46.875 FPS (1024 SPF)
  67. Compression mode               : Lossy
  68. Stream size                    : 124 MiB (4%)
  69. Title                          : 英语
  70. Language                       : English
  71. Default                        : No
  72. Forced                         : No

  73. Text
  74. ID                             : 4
  75. Format                         : UTF-8
  76. Codec ID                       : S_TEXT/UTF8
  77. Codec ID/Info                  : UTF-8 Plain Text
  78. Duration                       : 1 h 23 min
  79. Bit rate                       : 53 b/s
  80. Count of elements              : 1067
  81. Stream size                    : 32.9 KiB (0%)
  82. Title                          : 简体中字
  83. Language                       : Chinese
  84. Default                        : Yes
  85. Forced                         : No

复制代码


去后缀.pdf


资源获取:链接:>>点击进入百度云下载<<(←购买前请先验证分享链接是否有效)                              
                             https://115.com/s/swndu60330z#




游客,需要您回复成为VIP才能查看隐藏内容








评分

参与人数 4游币 +165 精品值 +15 分享值 +4 收起 理由
admin + 50 + 15 + 1 慢慢游有你更精彩!
StarrySky + 1 如此棒的资源,不赞对不起慢慢游!.
TS天高云淡 + 115 + 1
zfrzfr + 1

查看全部评分

楼主精华帖
处女座→爱音乐→爱电影→更爱慢慢游!
回复

使用道具 举报

签到天数: 559 天

[LV.9]以坛为家II

4

主题

1323

帖子

4545

积分

Rank: 16Rank: 16Rank: 16Rank: 16

阅读权限
70
游币
2757
精品值
0
热心值
0
分享值
0
在线时间
465 小时
注册时间
2017-1-1
最后登录
2021-9-19
发表于 2021-9-13 10:56:29 | 显示全部楼层
楼主如此诚意的分享如此精彩的内容,必须赞!我想我是一天也不能离开慢慢游。
回复 支持 反对

使用道具 举报

签到天数: 111 天

[LV.6]常住居民II

21

主题

459

帖子

720

积分

Rank: 4

阅读权限
30
游币
177
精品值
0
热心值
0
分享值
5
在线时间
74 小时
注册时间
2013-5-5
最后登录
2021-9-18
发表于 2021-9-13 11:01:07 | 显示全部楼层
楼主,我太崇拜你了!我想我是一天也不能离开慢慢游。
回复 支持 反对

使用道具 举报

签到天数: 2 天

[LV.1]初来乍到

6

主题

1789

帖子

2800

积分

Rank: 8Rank: 8

阅读权限
50
游币
653
精品值
0
热心值
0
分享值
0
在线时间
359 小时
注册时间
2019-4-1
最后登录
2021-9-20
发表于 2021-9-13 11:10:12 | 显示全部楼层
看看这部豺狼计划
回复 支持 反对

使用道具 举报

签到天数: 335 天

[LV.8]以坛为家I

2

主题

524

帖子

1万

积分

Rank: 32Rank: 32Rank: 32Rank: 32Rank: 32Rank: 32Rank: 32Rank: 32

阅读权限
90
游币
9151
精品值
397
热心值
0
分享值
18
在线时间
194 小时
注册时间
2020-10-9
最后登录
2021-9-21
发表于 2021-9-13 11:17:26 | 显示全部楼层
其实我一直觉得楼主是资源大神!慢慢游有你们更精彩!
回复 支持 反对

使用道具 举报

签到天数: 148 天

[LV.7]常住居民III

0

主题

164

帖子

702

积分

Rank: 4

阅读权限
30
游币
494
精品值
0
热心值
0
分享值
0
在线时间
44 小时
注册时间
2015-3-23
最后登录
2021-9-20
发表于 2021-9-13 11:29:24 | 显示全部楼层
楼主太厉害了!这个资源都能找到,辛苦了!我觉得慢慢游真是个好地方!
回复 支持 反对

使用道具 举报

签到天数: 1756 天

[LV.Master]伴坛终老

101

主题

5529

帖子

1万

积分

Rank: 32Rank: 32Rank: 32Rank: 32Rank: 32Rank: 32Rank: 32Rank: 32

阅读权限
90
游币
8102
精品值
616
热心值
4
分享值
47
在线时间
3023 小时
注册时间
2015-4-14
最后登录
2021-9-20
发表于 2021-9-13 11:31:47 | 显示全部楼层
楼主如此诚意的分享如此精彩的内容,必须赞!我想我是一天也不能离开慢慢游。
回复 支持 反对

使用道具 举报

签到天数: 59 天

[LV.5]常住居民I

5

主题

1982

帖子

3657

积分

Rank: 8Rank: 8

阅读权限
50
游币
785
精品值
0
热心值
0
分享值
0
在线时间
890 小时
注册时间
2017-2-9
最后登录
2021-9-19
发表于 2021-9-13 11:59:30 | 显示全部楼层
谢谢楼主分享此片
回复 支持 反对

使用道具 举报

签到天数: 44 天

[LV.5]常住居民I

0

主题

54

帖子

231

积分

Rank: 4

阅读权限
30
游币
159
精品值
0
热心值
0
分享值
0
在线时间
18 小时
注册时间
2021-7-22
最后登录
2021-9-18
发表于 2021-9-13 12:06:28 | 显示全部楼层
非常感谢分享经典电影,谢谢!
回复 支持 反对

使用道具 举报

签到天数: 15 天

[LV.4]偶尔看看III

0

主题

112

帖子

454

积分

Rank: 4

阅读权限
30
游币
307
精品值
0
热心值
0
分享值
0
在线时间
35 小时
注册时间
2021-9-4
最后登录
2021-9-20
发表于 2021-9-13 12:42:03 | 显示全部楼层
这东西我收了!谢谢楼主!有慢慢游真好!
回复 支持 反对

使用道具 举报

回帖须知
本站严禁灌水回复以及讽刺辱骂分享者的行为,轻者扣分警告,重者直接永久封禁。发帖前请详读:点击进入 。以免永久封禁。
 懒得打字?点击快捷回复➔➔ 
您需要登录后才可以回帖 登录 | 我要注册

本版积分规则

小黑屋|手机版|慢慢游社区 ( 站务处理service@mmyfilm.com )

GMT+8, 2021-9-21 01:23 , Processed in 0.266980 second(s), 30 queries .

Powered by Discuz! X3.4

© 2001-2013 Comsenz Inc.

快速回复 返回顶部 返回列表