慢慢游社区

 找回密码
 我要注册
搜索
查看: 3113|回复: 414

[魔幻] [顶级收藏版][封神演义][1987][极致画质洗版][4K 2160p 高码-Mp4/4G][国语][阿里云盘]

  [复制链接]

签到天数: 226 天

[LV.7]常住居民III

109

主题

1166

帖子

9万

积分

Rank: 64Rank: 64Rank: 64Rank: 64Rank: 64Rank: 64Rank: 64Rank: 64Rank: 64Rank: 64Rank: 64Rank: 64Rank: 64Rank: 64Rank: 64Rank: 64

阅读权限
110
游币
90514
精品值
0
热心值
0
分享值
349
在线时间
312 小时
注册时间
2019-5-16
最后登录
2021-9-21
发表于 2021-9-13 00:16:22 | 显示全部楼层 |阅读模式
本帖最后由 zhonghuahong 于 2021-9-18 15:34 编辑
内含香艳画面


◎译  名 封神演义 / 绝代妖姬 / 灵幻妖女(日译)
◎年  代 1987
◎产  地 中国台湾
◎类  别 剧情 / 奇幻 / 古装
◎语  言 汉语普通话
◎上映日期 1991
◎IMDb链接 https://www.imdb.com/title//
◎豆瓣评分 4.3/10 (126人评价)
◎豆瓣链接 https://movie.douban.com/subject/25966093/
◎片  长 78分钟
◎编  剧 许仲琳 Zhonglin Xu (id:1345660)
◎演  员 李强 Chiang Li (id:1394331)
      李滔 Tao Li (id:1411396)
      王宝玉 Bao Yu Wang (id:1378981)
      严重 Chung Yen (id:1421686)
      蒋青峰 Ching Feng Chiang (id:1394330)
      何瑷芸 Ai-yun Ho (id:1358344)
      姜大川 Tai-Chuen Kong (id:1410127)
      曲弘 Hung Cho (id:1360450)
      李强 Qiang Li (id:1274810)
      曲弘 Hung Cho (id:1360450)

◎标  签 台湾电影 / 1987 / 封神榜 / 神话 / 古装 / 封神演义 / 小说改编 / 电影

◎简  介
  纣王无道宠妲己,近小人,整个朝纲都被肆意破坏。 一些志士实在无法忍受纣王的暴虐,姜子牙等人打算为民请命,通过战争将纣王一举推翻。战火中,纣王被迫退位,而姜子牙和...


General
Complete name : 封神演义.Feng.Shen.Yan.Yi.1987.2160p.WEB-DL.H265.AAC-10006@BBQDDQ.COM.mp4
Format : MPEG-4
Format profile : Base Media
Codec ID : isom (isom/iso2/mp41)
File size : 3.94 GiB
Duration : 1 h 18 min
Overall bit rate mode : Variable
Overall bit rate : 7 154 kb/s
Writing application : OurTV Media Encoder

Video
ID : 1
Format : HEVC
Format/Info : High Efficiency Video Coding
Format profile : Main@L5@Main
Codec ID : hev1
Codec ID/Info : High Efficiency Video Coding
Duration : 1 h 18 min
Bit rate : 7 023 kb/s
Width : 3 840 pixels
Height : 2 084 pixels
Display aspect ratio : 1.85:1
Frame rate mode : Constant
Frame rate : 25.000 FPS
Color space : YUV
Chroma subsampling : 4:2:0
Bit depth : 8 bits
Bits/(Pixel*Frame) : 0.035
Stream size : 3.86 GiB (98%)
Codec configuration box : hvcC

Audio
ID : 2
Format : AAC LC
Format/Info : Advanced Audio Codec Low Complexity
Codec ID : mp4a-40-2
Duration : 1 h 18 min
Bit rate mode : Variable
Bit rate : 125 kb/s
Maximum bit rate : 127 kb/s / 127 kb/s
Channel(s) : 2 channels
Channel layout : L R
Sampling rate : 44.1 kHz
Frame rate : 43.066 FPS (1024 SPF)
Compression mode : Lossy
Stream size : 70.2 MiB (2%)
Default : Yes
Alternate group : 1

本人4K 2160p合集系列传送门(持续更新中):
《星球大战系列11部》:https://www.manmanyou.net/thread-329265-1-1.html
《漫威MCU最全合集包括剧集》:https://www.manmanyou.net/thread-328535-1-1.html
《皮克斯动漫合集 长+短》:https://www.manmanyou.net/thread-328718-1-1.html
《迪士尼动漫合集 150+》:https://www.manmanyou.net/thread-328589-1-1.html
《火影忍者4K+剧场版》:https://www.manmanyou.net/thread-328404-1-1.html
《宫崎骏/吉卜力动漫合集》:https://www.manmanyou.net/thread-328159-1-1.html
1、画质为4K 2160p,高码
2、4G左右,国语
3、下载下来观影最佳
4、分享不易,喜欢的给个评分谢谢
5、高帧到底看着有多爽?下载到电脑自己体会!!!
没有阿里云的可以注册一个,目前不限速不限容量
慢慢游社区_微信截图_20210913002202.png 慢慢游社区_微信截图_20210913002250.png 慢慢游社区_微信截图_20210913002509.png


游客,需要您回复成为VIP才能查看隐藏内容

评分

参与人数 4分享值 +4 收起 理由
zyk3000 + 1
jeffzhou888 + 1
星空凤凰 + 1
lchh777 + 1

查看全部评分

楼主精华帖
回复

使用道具 举报

签到天数: 441 天

[LV.9]以坛为家II

0

主题

759

帖子

1322

积分

Rank: 8Rank: 8

阅读权限
50
游币
209
精品值
5
热心值
0
分享值
0
在线时间
344 小时
注册时间
2020-4-16
最后登录
2021-9-21
发表于 2021-9-13 00:18:52 | 显示全部楼层
楼主发贴辛苦了,谢谢楼主分享!我觉得
回复 支持 反对

使用道具 举报

签到天数: 1286 天

[LV.10]以坛为家III

29

主题

3152

帖子

7903

积分

Rank: 16Rank: 16Rank: 16Rank: 16

阅读权限
70
游币
4020
精品值
3
热心值
0
分享值
3
在线时间
719 小时
注册时间
2015-12-1
最后登录
2021-9-20

活跃会员热心会员

发表于 2021-9-13 00:31:49 | 显示全部楼层
感谢感谢,下载欣赏
回复 支持 反对

使用道具 举报

签到天数: 1204 天

[LV.10]以坛为家III

0

主题

5630

帖子

9122

积分

Rank: 16Rank: 16Rank: 16Rank: 16

阅读权限
70
游币
1886
精品值
51
热心值
0
分享值
0
在线时间
1504 小时
注册时间
2018-2-24
最后登录
2021-9-20
发表于 2021-9-13 00:33:47 | 显示全部楼层
感谢楼主分享资源
回复 支持 反对

使用道具 举报

签到天数: 388 天

[LV.9]以坛为家II

0

主题

465

帖子

9154

积分

Rank: 16Rank: 16Rank: 16Rank: 16

阅读权限
70
游币
8075
精品值
72
热心值
0
分享值
0
在线时间
470 小时
注册时间
2020-3-9
最后登录
2021-9-21
发表于 2021-9-13 00:46:21 | 显示全部楼层
满怀欣喜的看看
回复 支持 反对

使用道具 举报

签到天数: 701 天

[LV.9]以坛为家II

6

主题

1305

帖子

2623

积分

Rank: 8Rank: 8

阅读权限
50
游币
797
精品值
91
热心值
0
分享值
0
在线时间
339 小时
注册时间
2019-8-1
最后登录
2021-9-20
发表于 2021-9-13 00:50:13 | 显示全部楼层
楼主发贴辛苦了,谢谢楼主的精彩分享!我觉得慢慢游是注册对了!
回复 支持 反对

使用道具 举报

签到天数: 2 天

[LV.1]初来乍到

1

主题

88

帖子

403

积分

Rank: 4

阅读权限
30
游币
249
精品值
0
热心值
0
分享值
0
在线时间
66 小时
注册时间
2015-2-18
最后登录
2021-9-13
发表于 2021-9-13 00:59:11 | 显示全部楼层
楼主发贴辛苦了,谢谢楼主的精彩分享!我觉得慢慢游是注册对了!
回复 支持 反对

使用道具 举报

签到天数: 792 天

[LV.10]以坛为家III

3

主题

1290

帖子

1642

积分

Rank: 8Rank: 8

阅读权限
50
游币
52
精品值
0
热心值
0
分享值
0
在线时间
300 小时
注册时间
2018-12-1
最后登录
2021-9-20
发表于 2021-9-13 01:08:32 | 显示全部楼层
这东西我收了!谢谢楼主!有慢慢游真好!
回复 支持 反对

使用道具 举报

签到天数: 351 天

[LV.8]以坛为家I

6

主题

485

帖子

1205

积分

Rank: 8Rank: 8

阅读权限
50
游币
568
精品值
0
热心值
0
分享值
0
在线时间
152 小时
注册时间
2019-8-3
最后登录
2021-9-21
发表于 2021-9-13 01:08:52 | 显示全部楼层
本资源找了很久了,终于在慢慢游找到,感谢您的分享。祝慢慢游越来越好!
回复 支持 反对

使用道具 举报

签到天数: 857 天

[LV.10]以坛为家III

2

主题

1182

帖子

4351

积分

Rank: 16Rank: 16Rank: 16Rank: 16

阅读权限
70
游币
2361
精品值
65
热心值
0
分享值
13
在线时间
652 小时
注册时间
2019-3-23
最后登录
2021-9-21
发表于 2021-9-13 01:15:53 | 显示全部楼层
感谢分享,,,,,,,,,,
回复

使用道具 举报

回帖须知
本站严禁灌水回复以及讽刺辱骂分享者的行为,轻者扣分警告,重者直接永久封禁。发帖前请详读:点击进入 。以免永久封禁。
 懒得打字?点击快捷回复➔➔ 
您需要登录后才可以回帖 登录 | 我要注册

本版积分规则

小黑屋|手机版|慢慢游社区 ( 站务处理service@mmyfilm.com )

GMT+8, 2021-9-21 01:54 , Processed in 0.174916 second(s), 31 queries .

Powered by Discuz! X3.4

© 2001-2013 Comsenz Inc.

快速回复 返回顶部 返回列表