慢慢游社区

 找回密码
 我要注册
搜索
查看: 551|回复: 24

[剧情] [百度云][AI高清修复纯净收藏版][大陆][火船/银饰II床 ][1993][国语无字][85分钟][1080P]

[复制链接]

签到天数: 373 天

[LV.9]以坛为家II

76

主题

1074

帖子

4万

积分

Rank: 64Rank: 64Rank: 64Rank: 64Rank: 64Rank: 64Rank: 64Rank: 64Rank: 64Rank: 64Rank: 64Rank: 64Rank: 64Rank: 64Rank: 64Rank: 64

阅读权限
110
游币
39933
精品值
326
热心值
0
分享值
82
在线时间
836 小时
注册时间
2020-4-14
最后登录
2021-9-23

最佳新人天蝎座辰龙丑牛亥猪卯兔申猴巳蛇未羊午马戌狗寅虎酉鸡子鼠白羊座狮子座处女座天秤座双子座水瓶座金牛座双鱼座射手座巨蟹座摩羯座活跃会员

QQ
发表于 2021-9-8 14:44:15 | 显示全部楼层 |阅读模式
声明:此资源DVD提取版。原89分钟,可惜完整版中间有几分钟音轨画面损坏,实在没办法,只能把缺失的那段拼接删减版(纯净版的,这里没用北影,因为有台标,导致的结果就是这段画面分辨率不一样。介意者勿拍)。缺失的那段为姐妹两从发现小花的尸体,然后大女儿回去质问正在睡觉的父亲,是不是他杀了小花,他爹否认并痛喊他怎么会杀阿花的剧情。其余都是未删减的,可放心观看。但是剧情比起北影更加通俗易懂了,大尺度截图就不放了,自行欣赏吧。原版画质有限,AI修复也是差强人意,本坛首发,禁止转载与转发。仅限本坛交流!
慢慢游社区_海报.png
导演: 黄健中
编剧: 黄健中 / 顾乃晔
主演: 何晴 / 李保田
类型: 剧情
制片国家/地区: 中国大陆
语言: 汉语普通话
上映日期: 1993
又名: The Fire Boat / 银饰Ⅱ床 / 银饰2床

火船的剧情简介 · · · · · ·
  老丁拐(李保田饰)丧妻后长期的性苦闷,喜欢上了一个疯女人,并多次将疯女人带到自己的船房。疯女人被奸杀之后老丁拐曾被冤枉,回来以后,在那张陌生又熟悉的床上……
火船的图片 · · · · · ·
慢慢游社区_1.png 慢慢游社区_2.png 慢慢游社区_3.png 慢慢游社区_4.png 慢慢游社区_5.png 慢慢游社区_6.png
General
Complete name                  : 火船 (1993).mp4
Format                         : MPEG-4
Format profile                 : Base Media
Codec ID                       : isom (isom)
File size                      : 1.55 GiB
Duration                       : 1 h 25 min
Overall bit rate mode          : Variable
Overall bit rate               : 2 593 kb/s
Encoded date                   : UTC 2021-09-08 06:03:39
Tagged date                    : UTC 2021-09-08 06:03:39

Video
ID                             : 1
Format                         : AVC
Format/Info                    : Advanced Video Codec
Format profile                 : High@L4
Format settings                : CABAC / 4 Ref Frames
Format settings, CABAC         : Yes
Format settings, Reference fra : 4 frames
Codec ID                       : avc1
Codec ID/Info                  : Advanced Video Coding
Duration                       : 1 h 25 min
Bit rate                       : 2 461 kb/s
Maximum bit rate               : 17.3 Mb/s
Width                          : 1 440 pixels
Height                         : 1 080 pixels
Display aspect ratio           : 4:3
Frame rate mode                : Constant
Frame rate                     : 29.000 FPS
Color space                    : YUV
Chroma subsampling             : 4:2:0
Bit depth                      : 8 bits
Scan type                      : Progressive
Bits/(Pixel*Frame)             : 0.055
Stream size                    : 1.47 GiB (95%)
Writing library                : x264 core 148 r2721+46 0c4b09a xiaowan [8-bit@all X86_64]
Encoding settings              : cabac=1 / ref=4 / deblock=1:1:1 / analyse=0x3:0x133 / me=umh / subme=10 / psy=1 / fade_compensate=0.00 / psy_rd=0.30:0.00 / mixed_ref=1 / me_range=24 / chroma_me=1 / trellis=2 / 8x8dct=1 / cqm=0 / deadzone=21,11 / fast_pskip=1 / chroma_qp_offset=-2 / threads=18 / lookahead_threads=1 / sliced_threads=0 / nr=0 / decimate=1 / interlaced=0 / bluray_compat=0 / constrained_intra=0 / fgo=0 / bframes=3 / b_pyramid=2 / b_adapt=2 / b_bias=0 / direct=3 / weightb=1 / open_gop=0 / weightp=2 / keyint=290 / keyint_min=1 / scenecut=60 / intra_refresh=0 / rc_lookahead=60 / rc=crf / mbtree=1 / crf=20.0000 / qcomp=0.50 / qpmin=0:0:0 / qpmax=69:69:69 / qpstep=4 / ip_ratio=1.40 / aq=2:0.80 / aq-sensitivity=10.00 / aq-factor=1.00:1.00:1.00 / aq2=0 / aq3=0
Encoded date                   : UTC 2021-09-08 02:45:59
Tagged date                    : UTC 2021-09-08 06:03:50
Color range                    : Limited
Matrix coefficients            : BT.709
Codec configuration box        : avcC

Audio
ID                             : 2
Format                         : AAC LC
Format/Info                    : Advanced Audio Codec Low Complexity
Codec ID                       : mp4a-40-2
Duration                       : 1 h 25 min
Bit rate mode                  : Variable
Bit rate                       : 128 kb/s
Maximum bit rate               : 156 kb/s
Channel(s)                     : 2 channels
Channel layout                 : L R
Sampling rate                  : 44.1 kHz
Frame rate                     : 43.066 FPS (1024 SPF)
Compression mode               : Lossy
Stream size                    : 78.2 MiB (5%)
Encoded date                   : UTC 2021-09-08 02:42:20
Tagged date                    : UTC 2021-09-08 06:03:50

解压与观看请删除后缀“删”字,请勿在线解压,谢谢
链接:>>点击进入百度云下载<<(←购买前请先验证分享链接是否有效)
提取码:

此处内容付费可见

向楼主支付【游币】或成为【特权组】才能显示 已有 17 人购买 

支付 300 游币 成为特权组
楼主精华帖
回复

使用道具 举报

签到天数: 152 天

[LV.7]常住居民III

10

主题

852

帖子

4910

积分

Rank: 16Rank: 16Rank: 16Rank: 16

阅读权限
70
游币
3856
精品值
0
热心值
0
分享值
10
在线时间
182 小时
注册时间
2018-8-21
最后登录
2021-9-22
发表于 2021-9-8 14:53:49 | 显示全部楼层
楼主发贴辛苦了,谢谢楼主的精彩分享!我觉得慢慢游是注册对了!
回复 支持 反对

使用道具 举报

该用户从未签到

0

主题

47

帖子

4504

积分

Rank: 16Rank: 16Rank: 16Rank: 16

阅读权限
70
游币
4445
精品值
0
热心值
0
分享值
0
在线时间
12 小时
注册时间
2020-4-15
最后登录
2021-9-23
发表于 2021-9-8 14:56:58 | 显示全部楼层
经典老电影,谢
回复 支持 反对

使用道具 举报

签到天数: 559 天

[LV.9]以坛为家II

4

主题

1322

帖子

4544

积分

Rank: 16Rank: 16Rank: 16Rank: 16

阅读权限
70
游币
2757
精品值
0
热心值
0
分享值
0
在线时间
465 小时
注册时间
2017-1-1
最后登录
2021-9-19
发表于 2021-9-8 15:03:12 | 显示全部楼层
楼主如此诚意的分享如此精彩的内容,必须赞!我想我是一天也不能离开慢慢游。
回复 支持 反对

使用道具 举报

该用户从未签到

0

主题

4

帖子

5

积分

阅读权限
0
游币
1
精品值
0
热心值
0
分享值
0
在线时间
0 小时
注册时间
2021-9-8
最后登录
2021-9-9
发表于 2021-9-8 15:09:55 | 显示全部楼层
提示: 作者被禁止或删除 内容自动屏蔽
回复 支持 反对

使用道具 举报

签到天数: 400 天

[LV.9]以坛为家II

3

主题

2514

帖子

3919

积分

Rank: 16Rank: 16Rank: 16Rank: 16

阅读权限
70
游币
1283
精品值
0
热心值
0
分享值
0
在线时间
122 小时
注册时间
2020-5-5
最后登录
2021-9-23
发表于 2021-9-8 15:37:12 | 显示全部楼层
感谢楼主的无私分享!要想慢慢游好 就靠你我他
回复 支持 反对

使用道具 举报

签到天数: 446 天

[LV.9]以坛为家II

1

主题

816

帖子

4432

积分

Rank: 16Rank: 16Rank: 16Rank: 16

阅读权限
70
游币
3136
精品值
79
热心值
0
分享值
0
在线时间
322 小时
注册时间
2019-11-20
最后登录
2021-9-23
发表于 2021-9-8 16:20:36 | 显示全部楼层
感谢分享优秀作品
回复 支持 反对

使用道具 举报

签到天数: 349 天

[LV.8]以坛为家I

0

主题

1483

帖子

2518

积分

Rank: 8Rank: 8

阅读权限
50
游币
901
精品值
0
热心值
0
分享值
0
在线时间
134 小时
注册时间
2020-4-24
最后登录
2021-9-23
发表于 2021-9-8 18:18:12 | 显示全部楼层
楼主发贴辛苦了,谢谢楼主的精彩分享!我觉得慢慢游是注册对了!
回复 支持 反对

使用道具 举报

签到天数: 698 天

[LV.9]以坛为家II

0

主题

1068

帖子

2011

积分

Rank: 8Rank: 8

阅读权限
50
游币
523
精品值
47
热心值
0
分享值
0
在线时间
326 小时
注册时间
2019-1-26
最后登录
2021-9-23
发表于 2021-9-8 19:30:11 | 显示全部楼层
楼主太厉害了!这个资源都能找到,辛苦了!我觉得慢慢游真是个好地方!
回复 支持 反对

使用道具 举报

签到天数: 1104 天

[LV.10]以坛为家III

1

主题

1551

帖子

1930

积分

Rank: 8Rank: 8

阅读权限
50
游币
33
精品值
8
热心值
0
分享值
0
在线时间
330 小时
注册时间
2016-10-1
最后登录
2021-9-22
发表于 2021-9-8 20:34:05 | 显示全部楼层
第一部我看过,挺有意思的。
回复 支持 反对

使用道具 举报

回帖须知
本站严禁灌水回复以及讽刺辱骂分享者的行为,轻者扣分警告,重者直接永久封禁。发帖前请详读:点击进入 。以免永久封禁。
 懒得打字?点击快捷回复➔➔ 
您需要登录后才可以回帖 登录 | 我要注册

本版积分规则

小黑屋|手机版|慢慢游社区 ( 站务处理service@mmyfilm.com )

GMT+8, 2021-9-23 16:52 , Processed in 0.279431 second(s), 36 queries .

Powered by Discuz! X3.4

© 2001-2013 Comsenz Inc.

快速回复 返回顶部 返回列表