慢慢游社区

 找回密码
 我要注册
搜索
查看: 1622|回复: 271

[已封装] 红包帖附HBO台配截图隔壁进来看 《 圣诞奇迹夜》正版上译国英双语Noel.2004.1080p.WEBRip.x264-2AUDio.mkv

  [复制链接]

签到天数: 33 天

[LV.5]常住居民I

470

主题

714

帖子

9万

积分

Rank: 64Rank: 64Rank: 64Rank: 64Rank: 64Rank: 64Rank: 64Rank: 64Rank: 64Rank: 64Rank: 64Rank: 64Rank: 64Rank: 64Rank: 64Rank: 64

阅读权限
150
游币
29875
精品值
29233
热心值
0
分享值
532
在线时间
2277 小时
注册时间
2015-4-15
最后登录
2021-9-20

热心会员推广达人宣传达人突出贡献优秀版主荣誉管理正太勋章色狼勋章猥琐勋章大叔勋章皇冠勋章音频组专属勋章风度翩翩勋章

发表于 2021-9-6 22:13:24 | 显示全部楼层 |阅读模式
本帖最后由 Autohome 于 2021-9-7 16:06 编辑

回应红包,礼尚往来你们每人38大洋,那么大的超板:135万大洋,那么小气 ,我怎么也得翻倍,直接88开发,虽然我只有3万多大洋,为你的小气我愿意付出3分之一,这样才对得起你的小气,才对得起你的身份,袁老同志!!!纪念保罗·沃克,罗宾·威廉姆斯两大国际知名演员,特发此片!!里面还有香草的天空 女主角:佩内洛普·克鲁兹 还有主演末路狂花苏珊·萨兰登,值得一看本来不想说这些话的,就是抢了你们的首发,你就不乐意啦!!!隔壁的跟班们通知你的主子,出来骂街呀!!
隔壁原子弹,什么全网独发其实就是HBO电视台播的台配,没什么神秘的,一年千八百,谁都拿出了,就不要在那里矫情了,好不好,你可以录,你也可以设置权限,是你的自由,我是不在乎,有能耐直接设置权限250,不设置,我都看不起你,袁同志,以前你们不最看不上台配国语,说什么草台,现在国语资源少了,拿台配当宝似的,不要把所有人都当傻子行不行!!!我们不发,不是没有,是有版规说不能发新片,以为我们不吱声就是怕了你,给你留点脸!!!
慢慢游社区_HBO小丑女8.jpg
慢慢游社区_HBO小丑女.jpg
慢慢游社区_HBO小丑女1.jpg
慢慢游社区_HBO小丑女2.jpg
慢慢游社区_HBO小丑女3.jpg
慢慢游社区_HBO小丑女4.jpg
慢慢游社区_HBO小丑女7.jpg
慢慢游社区_HBO小丑女6.jpg

下面是你们全网独发的电影播放时间!!!有条件的可以自行观看!!!

慢慢游社区_捍卫救援.jpg 9月4日录的吧捍衛救援
慢慢游社区_捍衛救援.jpg
小丑女播放时间
慢慢游社区_小丑女.jpg

女巫们播放时间
慢慢游社区_女巫.jpg
慢慢游社区_src=http-//img10.51tietu.net/pic/2016-071202/20160712021706pxolaqwsmk1.jpg&refer.jpg

导演: 查兹·帕尔明特瑞
编剧: David Hubbard
主演: 苏珊·萨兰登 / 保罗·沃克 / 佩内洛普·克鲁兹
类型: 剧情
官方网站: http://www.noelthemovie.com/
制片国家/地区: 美国 / 加拿大
语言: 英语
上映日期: 2004-09-12(多伦多电影节)
片长: 96 分钟
IMDb: tt0383534

剧情简介 · · · · · ·

  现代的纽约圣诞夜,当人们不再嘘寒问暖,五个素昧平生的人将会重新发现圣诞的真谛。杰拉找到勇气走出阴霾,亚提(亚伦阿金)悲剧的往事提醒了麦克珍惜眼前与妮娜(佩内洛普·克鲁兹)的关系,同时,萝丝(苏珊·萨兰登)找到了人生新希望,一段意想不到的友谊点醒了她,没有人在圣诞夜是真正孤独的……
慢慢游社区_圣诞奇迹夜正版上译国英双语Noel.2004.1080p.WEBRip.x264-2AUDio.mkv_20210906_213250.jpg 慢慢游社区_圣诞奇迹夜正版上译国英双语Noel.2004.1080p.WEBRip.x264-2AUDio.mkv_20210906_213253.jpg
慢慢游社区_圣诞奇迹夜正版上译国英双语Noel.2004.1080p.WEBRip.x264-2AUDio.mkv_20210906_213258.jpg
慢慢游社区_圣诞奇迹夜正版上译国英双语Noel.2004.1080p.WEBRip.x264-2AUDio.mkv_20210906_213300.jpg
慢慢游社区_圣诞奇迹夜正版上译国英双语Noel.2004.1080p.WEBRip.x264-2AUDio.mkv_20210906_213310.jpg
慢慢游社区_圣诞奇迹夜正版上译国英双语Noel.2004.1080p.WEBRip.x264-2AUDio.mkv_20210906_213307.jpg
General
Unique ID                      : 296662958716054316655016352790081933771 (0xDF2F3522885B5EC27CE99C1F104791CB)
Complete name                  : G:\2021合成\圣诞奇迹夜正版上译国英双语Noel.2004.1080p.WEBRip.x264-2AUDio.mkv
Format                         : Matroska
Format version                 : Version 4
File size                      : 2.28 GiB
Duration                       : 1 h 36 min
Overall bit rate               : 3 363 kb/s
Encoded date                   : UTC 2021-05-13 10:14:49
Writing application            : mkvmerge v55.0.0 ('Waiting For Space') 64-bit
Writing library                : libebml v1.4.2 + libmatroska v1.6.4

Video
ID                             : 2
Format                         : AVC
Format/Info                    : Advanced Video Codec
Format profile                 : High@L4.1
Format settings                : CABAC / 4 Ref Frames
Format settings, CABAC         : Yes
Format settings, Reference fra : 4 frames
Codec ID                       : V_MPEG4/ISO/AVC
Duration                       : 1 h 36 min
Bit rate                       : 2 500 kb/s
Width                          : 1 920 pixels
Height                         : 816 pixels
Display aspect ratio           : 2.35:1
Frame rate mode                : Constant
Frame rate                     : 23.976 (23976/1000) FPS
Color space                    : YUV
Chroma subsampling             : 4:2:0
Bit depth                      : 8 bits
Scan type                      : Progressive
Bits/(Pixel*Frame)             : 0.067
Stream size                    : 1.69 GiB (74%)
Writing library                : x264 core 152 r2851M ba24899
Encoding settings              : cabac=1 / ref=4 / deblock=1:-1:-1 / analyse=0x3:0x113 / me=umh / subme=9 / psy=1 / psy_rd=1.00:0.15 / mixed_ref=1 / me_range=24 / chroma_me=1 / trellis=2 / 8x8dct=1 / cqm=0 / deadzone=21,11 / fast_pskip=1 / chroma_qp_offset=-3 / threads=16 / lookahead_threads=4 / sliced_threads=0 / nr=0 / decimate=1 / interlaced=0 / bluray_compat=0 / constrained_intra=0 / bframes=3 / b_pyramid=2 / b_adapt=2 / b_bias=0 / direct=3 / weightb=1 / open_gop=0 / weightp=2 / keyint=250 / keyint_min=25 / scenecut=40 / intra_refresh=0 / rc_lookahead=50 / rc=2pass / mbtree=1 / bitrate=2500 / ratetol=1.0 / qcomp=0.60 / qpmin=0 / qpmax=69 / qpstep=4 / cplxblur=20.0 / qblur=0.5 / vbv_maxrate=31250 / vbv_bufsize=31250 / nal_hrd=none / filler=0 / ip_ratio=1.40 / aq=3:1.00
Default                        : Yes
Forced                         : No

Audio #1
ID                             : 1
Format                         : AC-3
Format/Info                    : Audio Coding 3
Commercial name                : Dolby Digital
Codec ID                       : A_AC3
Duration                       : 1 h 36 min
Bit rate mode                  : Constant
Bit rate                       : 640 kb/s
Channel(s)                     : 6 channels
Channel layout                 : L R C LFE Ls Rs
Sampling rate                  : 48.0 kHz
Frame rate                     : 31.250 FPS (1536 SPF)
Compression mode               : Lossy
Delay relative to video        : 4 s 957 ms
Stream size                    : 442 MiB (19%)
Title                          : 上译国配DD5.1-640Kbps
Language                       : Chinese
Service kind                   : Complete Main
Default                        : Yes
Forced                         : Yes

Audio #2
ID                             : 3
Format                         : AAC LC
Format/Info                    : Advanced Audio Codec Low Complexity
Codec ID                       : A_AAC-2
Duration                       : 1 h 36 min
Bit rate                       : 224 kb/s
Channel(s)                     : 2 channels
Channel layout                 : L R
Sampling rate                  : 48.0 kHz
Frame rate                     : 46.875 FPS (1024 SPF)
Compression mode               : Lossy
Delay relative to video        : -43 ms
Stream size                    : 155 MiB (7%)
Language                       : English
Default                        : No
Forced                         : No

链接:>>点击进入百度云下载<<(←购买前请先验证分享链接是否有效)
提取码:
游客,需要您回复成为VIP才能查看隐藏内容











慢慢游社区_HBO小丑女5.jpg

点评

绝对支持  发表于 2021-9-12 13:33
草台不是台配的意思,草台一词来自“草台班子”,本意是指农村那种流动的唱戏班子,非专业出身,后来引申为“非专业机构”之意,跟台配无关。  发表于 2021-9-9 16:12
太棒了  发表于 2021-9-8 01:16
其实我一直觉得楼主是资源大神!慢慢游有你们更精彩!  发表于 2021-9-7 07:27

评分

参与人数 18游币 +1195 分享值 +17 收起 理由
诸葛青云 + 100 + 1 神马都是浮云,资源才是硬道理!.
twg0012003 + 1
Ruoting + 1
lchh777 + 1
thj + 1
booeek + 1 就服楼主 :)
1002110993 + 20 神马都是浮云,资源才是硬道理!.
shaoye + 1
789666 + 100 + 1 支持楼主,愿多发红包
津门大哥 + 500 + 1
crhemu + 1 这个资源太棒了。
马儿快点跑 + 150 + 1
asdasd + 1
qjhy2 + 1 lz
来去如风 + 1 感谢大红包回赠分享值!
TS天高云淡 + 225 + 1 大力支持好兄弟!
waj110 + 1
gpgp + 100 + 1 圣诞夜奇迹 Noel (2004)

查看全部评分

楼主精华帖
回复

使用道具 举报

签到天数: 275 天

[LV.8]以坛为家I

14

主题

2021

帖子

1万

积分

Rank: 64Rank: 64Rank: 64Rank: 64Rank: 64Rank: 64Rank: 64Rank: 64Rank: 64Rank: 64Rank: 64Rank: 64Rank: 64Rank: 64Rank: 64Rank: 64

阅读权限
150
游币
14823
精品值
660
热心值
0
分享值
23
在线时间
524 小时
注册时间
2020-11-30
最后登录
2021-9-20

活跃会员优秀版主

发表于 2021-9-6 22:18:39 | 显示全部楼层

回帖奖励 +88 游币

不错,可以欣赏一下上译的电影
慢慢游社区,影视爱好者家园 网址https://www.manmanyou.net/forum.php
回复 支持 反对

使用道具 举报

签到天数: 175 天

[LV.7]常住居民III

0

主题

193

帖子

665

积分

Rank: 4

阅读权限
30
游币
429
精品值
0
热心值
0
分享值
0
在线时间
43 小时
注册时间
2020-3-18
最后登录
2021-9-20
发表于 2021-9-6 22:20:26 | 显示全部楼层

回帖奖励 +88 游币

这个真的非常赞啊!
谢LZ分享!
回复 支持 反对

使用道具 举报

签到天数: 170 天

[LV.7]常住居民III

23

主题

909

帖子

4928

积分

Rank: 16Rank: 16Rank: 16Rank: 16

阅读权限
70
游币
1945
精品值
326
热心值
0
分享值
40
在线时间
1342 小时
注册时间
2016-1-9
最后登录
2021-9-20
发表于 2021-9-6 22:20:56 | 显示全部楼层

回帖奖励 +88 游币

谢谢老板分享制作
回复 支持 反对

使用道具 举报

签到天数: 903 天

[LV.10]以坛为家III

1

主题

2714

帖子

5442

积分

Rank: 16Rank: 16Rank: 16Rank: 16

阅读权限
70
游币
1227
精品值
43
热心值
0
分享值
0
在线时间
1415 小时
注册时间
2017-10-1
最后登录
2021-9-20

活跃会员

发表于 2021-9-6 22:22:42 | 显示全部楼层

回帖奖励 +88 游币

多谢红包了!大神辛苦!
回复 支持 反对

使用道具 举报

签到天数: 414 天

[LV.9]以坛为家II

0

主题

764

帖子

1027

积分

Rank: 8Rank: 8

阅读权限
50
游币
113
精品值
0
热心值
0
分享值
0
在线时间
150 小时
注册时间
2018-10-25
最后登录
2021-9-20
发表于 2021-9-6 22:25:23 | 显示全部楼层

回帖奖励 +88 游币

楼主如此诚意的分享如此精彩的内容,必须赞!我想我是一天也不能离开慢慢游。
回复 支持 反对

使用道具 举报

签到天数: 1650 天

[LV.Master]伴坛终老

69

主题

3132

帖子

2万

积分

Rank: 32Rank: 32Rank: 32Rank: 32Rank: 32Rank: 32Rank: 32Rank: 32

阅读权限
90
游币
21752
精品值
198
热心值
0
分享值
37
在线时间
952 小时
注册时间
2015-2-28
最后登录
2021-9-20

活跃会员

发表于 2021-9-6 22:31:43 | 显示全部楼层

回帖奖励 +88 游币

这东西我收了!谢谢楼主!有慢慢游真好!
回复 支持 反对

使用道具 举报

签到天数: 2366 天

[LV.Master]伴坛终老

0

主题

3067

帖子

2万

积分

Rank: 32Rank: 32Rank: 32Rank: 32Rank: 32Rank: 32Rank: 32Rank: 32

阅读权限
90
游币
16744
精品值
32
热心值
0
分享值
0
在线时间
2023 小时
注册时间
2014-5-1
最后登录
2021-9-20

活跃会员

发表于 2021-9-6 22:36:57 | 显示全部楼层

回帖奖励 +88 游币

感谢楼主分享
回复 支持 反对

使用道具 举报

签到天数: 2366 天

[LV.Master]伴坛终老

0

主题

3067

帖子

2万

积分

Rank: 32Rank: 32Rank: 32Rank: 32Rank: 32Rank: 32Rank: 32Rank: 32

阅读权限
90
游币
16744
精品值
32
热心值
0
分享值
0
在线时间
2023 小时
注册时间
2014-5-1
最后登录
2021-9-20

活跃会员

发表于 2021-9-6 22:37:01 | 显示全部楼层
感谢楼主分享
回复 支持 反对

使用道具 举报

签到天数: 727 天

[LV.9]以坛为家II

0

主题

1372

帖子

1964

积分

Rank: 8Rank: 8

阅读权限
50
游币
186
精品值
0
热心值
0
分享值
0
在线时间
406 小时
注册时间
2018-12-12
最后登录
2021-9-21
发表于 2021-9-6 22:43:16 | 显示全部楼层

回帖奖励 +88 游币

其实我一直觉得楼主是资源大神!慢慢游有你们更精彩!
回复 支持 反对

使用道具 举报

回帖须知
本站严禁灌水回复以及讽刺辱骂分享者的行为,轻者扣分警告,重者直接永久封禁。发帖前请详读:点击进入 。以免永久封禁。
 懒得打字?点击快捷回复➔➔ 
您需要登录后才可以回帖 登录 | 我要注册

本版积分规则

小黑屋|手机版|慢慢游社区 ( 站务处理service@mmyfilm.com )

GMT+8, 2021-9-21 01:12 , Processed in 0.294460 second(s), 31 queries .

Powered by Discuz! X3.4

© 2001-2013 Comsenz Inc.

快速回复 返回顶部 返回列表