慢慢游社区

 找回密码
 我要注册
搜索
查看: 573|回复: 22

[恐怖] [百度云][食人族系列][稀缺纯净收藏版][美国][食人族大屠杀/活活生吞 Eaten Alive][1976][英语中字][1080P]

[复制链接]

签到天数: 373 天

[LV.9]以坛为家II

76

主题

1074

帖子

4万

积分

Rank: 64Rank: 64Rank: 64Rank: 64Rank: 64Rank: 64Rank: 64Rank: 64Rank: 64Rank: 64Rank: 64Rank: 64Rank: 64Rank: 64Rank: 64Rank: 64

阅读权限
110
游币
39933
精品值
326
热心值
0
分享值
82
在线时间
836 小时
注册时间
2020-4-14
最后登录
2021-9-23

最佳新人天蝎座辰龙丑牛亥猪卯兔申猴巳蛇未羊午马戌狗寅虎酉鸡子鼠白羊座狮子座处女座天秤座双子座水瓶座金牛座双鱼座射手座巨蟹座摩羯座活跃会员

QQ
发表于 2021-8-29 21:44:25 | 显示全部楼层 |阅读模式
慢慢游社区_海报.png
导演: 托比·霍珀
编剧: Alvin L. Fast / Mardi Rustam / 金·亨克尔
主演: 内维尔·布兰德 / 梅尔·费勒 / 卡罗琳·琼斯 / 玛丽莲·伯恩斯 / 威廉姆·菲利 / 更多...
类型: 恐怖
制片国家/地区: 美国
语言: 英语
上映日期: 1976-12-25(日本) / 1977-05-13(美国)
片长: 91分钟
又名: 食人族大屠杀

活活生吞的剧情简介 · · · · · ·
  一个精神失常的乡下中年男子在路易斯安那州人迹稀少的沼泽区经营着一家破旧的旅馆,一旦有让他感到心烦或影响到他生意的来客,他便将他们杀害并将尸体喂给旅馆旁边沼泽内他作为宠物饲养的食人鳄鱼。
活活生吞的图片 · · · · · ·

慢慢游社区_1.png 慢慢游社区_2.png 慢慢游社区_3.png 慢慢游社区_4.png 慢慢游社区_5.png 慢慢游社区_6.png 慢慢游社区_7.png 慢慢游社区_8.png 慢慢游社区_9.png
General
Unique ID                      : 96598002915087943752582561178485487693 (0x48AC19405AAD9929F487A18C5BAF784D)
Complete name                  : 食人族大屠杀 Eaten Alive (1976).mkv
Format                         : Matroska
Format version                 : Version 4
File size                      : 1.74 GiB
Duration                       : 1 h 31 min
Overall bit rate               : 2 730 kb/s
Encoded date                   : UTC 2021-08-06 13:51:51
Writing application            : mkvmerge v20.0.0 ('I Am The Sun') 64-bit
Writing library                : libebml v1.3.5 + libmatroska v1.4.8

Video
ID                             : 1
Format                         : AVC
Format/Info                    : Advanced Video Codec
Format profile                 : Main@L4
Format settings                : CABAC / 4 Ref Frames
Format settings, CABAC         : Yes
Format settings, Reference fra : 4 frames
Codec ID                       : V_MPEG4/ISO/AVC
Duration                       : 1 h 31 min
Bit rate                       : 2 600 kb/s
Width                          : 1 920 pixels
Height                         : 1 040 pixels
Display aspect ratio           : 1.85:1
Frame rate mode                : Constant
Frame rate                     : 23.000 FPS
Color space                    : YUV
Chroma subsampling             : 4:2:0
Bit depth                      : 8 bits
Scan type                      : Progressive
Bits/(Pixel*Frame)             : 0.057
Stream size                    : 1.66 GiB (95%)
Writing library                : x264 core 148 r2762 90a61ec
Encoding settings              : cabac=1 / ref=1 / deblock=1:0:0 / analyse=0x1:0x111 / me=hex / subme=6 / psy=0 / mixed_ref=0 / me_range=16 / chroma_me=1 / trellis=1 / 8x8dct=0 / cqm=0 / deadzone=21,11 / fast_pskip=1 / chroma_qp_offset=0 / threads=24 / lookahead_threads=4 / sliced_threads=0 / nr=0 / decimate=1 / interlaced=0 / bluray_compat=0 / constrained_intra=0 / bframes=3 / b_pyramid=2 / b_adapt=1 / b_bias=0 / direct=1 / weightb=1 / open_gop=0 / weightp=1 / keyint=250 / keyint_min=23 / scenecut=40 / intra_refresh=0 / rc_lookahead=30 / rc=crf / mbtree=1 / crf=23.0 / qcomp=0.60 / qpmin=0 / qpmax=69 / qpstep=4 / ip_ratio=1.40 / aq=2:1.00
Default                        : Yes
Forced                         : No
Color range                    : Limited
Transfer characteristics       : BT.709
Matrix coefficients            : BT.709

Audio
ID                             : 2
Format                         : AAC LC
Format/Info                    : Advanced Audio Codec Low Complexity
Codec ID                       : A_AAC-2
Duration                       : 1 h 31 min
Bit rate                       : 128 kb/s
Channel(s)                     : 2 channels
Channel layout                 : L R
Sampling rate                  : 48.0 kHz
Frame rate                     : 46.875 FPS (1024 SPF)
Compression mode               : Lossy
Delay relative to video        : -21 ms
Stream size                    : 83.2 MiB (5%)
Language                       : English
Default                        : Yes
Forced                         : Yes

Text
ID                             : 3
Format                         : UTF-8
Codec ID                       : S_TEXT/UTF8
Codec ID/Info                  : UTF-8 Plain Text
Duration                       : 1 h 28 min
Bit rate                       : 28 b/s
Count of elements              : 609
Stream size                    : 18.5 KiB (0%)
Language                       : Chinese
Default                        : Yes
Forced                         : Yes


解压与观看请删除后缀“删”字,请勿在线解压,谢谢
链接:>>点击进入百度云下载<<(←购买前请先验证分享链接是否有效)
提取码:

此处内容付费可见

向楼主支付【游币】或成为【特权组】才能显示 已有 15 人购买 

支付 80 游币 成为特权组
楼主精华帖
回复

使用道具 举报

该用户从未签到

0

主题

3978

帖子

9051

积分

Rank: 16Rank: 16Rank: 16Rank: 16

阅读权限
70
游币
4849
精品值
0
热心值
0
分享值
0
在线时间
224 小时
注册时间
2019-4-2
最后登录
2021-9-22
发表于 2021-8-29 22:34:10 | 显示全部楼层
楼主发贴辛苦了,谢谢楼主的精彩分享!我觉得慢慢游是注册对了!
回复 支持 反对

使用道具 举报

签到天数: 599 天

[LV.9]以坛为家II

0

主题

799

帖子

2291

积分

Rank: 8Rank: 8

阅读权限
50
游币
1320
精品值
0
热心值
0
分享值
0
在线时间
172 小时
注册时间
2018-9-28
最后登录
2021-9-23
发表于 2021-8-29 23:02:06 | 显示全部楼层
楼主太厉害了!这个资源都能找到,辛苦了!我觉得慢慢游真是个好地方!
回复 支持 反对

使用道具 举报

签到天数: 1503 天

[LV.Master]伴坛终老

0

主题

2373

帖子

1万

积分

Rank: 32Rank: 32Rank: 32Rank: 32Rank: 32Rank: 32Rank: 32Rank: 32

阅读权限
90
游币
14454
精品值
19
热心值
0
分享值
0
在线时间
969 小时
注册时间
2014-12-22
最后登录
2021-9-22
发表于 2021-8-29 23:27:22 | 显示全部楼层
楼主发贴辛苦了,谢谢楼主的精彩分享
回复 支持 反对

使用道具 举报

签到天数: 2077 天

[LV.Master]伴坛终老

1

主题

8737

帖子

3万

积分

Rank: 32Rank: 32Rank: 32Rank: 32Rank: 32Rank: 32Rank: 32Rank: 32

阅读权限
90
游币
27346
精品值
115
热心值
0
分享值
0
在线时间
854 小时
注册时间
2014-8-6
最后登录
2021-9-23

活跃会员

发表于 2021-8-30 08:21:03 | 显示全部楼层
楼主发贴辛苦了,谢谢楼主的精彩分享!我觉得慢慢游是注册对了!
回复 支持 反对

使用道具 举报

签到天数: 350 天

[LV.8]以坛为家I

0

主题

1000

帖子

1796

积分

Rank: 8Rank: 8

阅读权限
50
游币
393
精品值
0
热心值
0
分享值
0
在线时间
404 小时
注册时间
2019-5-17
最后登录
2021-9-23
发表于 2021-8-30 08:48:48 | 显示全部楼层
食人帝国
回复

使用道具 举报

签到天数: 736 天

[LV.9]以坛为家II

1

主题

1352

帖子

2242

积分

Rank: 8Rank: 8

阅读权限
50
游币
708
精品值
0
热心值
0
分享值
0
在线时间
182 小时
注册时间
2018-7-21
最后登录
2021-9-23
发表于 2021-8-30 11:32:02 | 显示全部楼层
感谢分享,支持
回复 支持 反对

使用道具 举报

签到天数: 3 天

[LV.2]偶尔看看I

0

主题

23

帖子

45

积分

Rank: 2

阅读权限
10
游币
20
精品值
0
热心值
0
分享值
0
在线时间
2 小时
注册时间
2020-2-11
最后登录
2021-9-5
发表于 2021-8-30 17:03:36 | 显示全部楼层
楼主如此诚意的分享如此精彩的内容,必须赞!我想我是一天也不能离开慢慢游。
回复 支持 反对

使用道具 举报

签到天数: 349 天

[LV.8]以坛为家I

0

主题

1483

帖子

2518

积分

Rank: 8Rank: 8

阅读权限
50
游币
901
精品值
0
热心值
0
分享值
0
在线时间
134 小时
注册时间
2020-4-24
最后登录
2021-9-23
发表于 2021-8-30 19:56:38 | 显示全部楼层
楼主发贴辛苦了,谢谢楼主的精彩分享!我觉得慢慢游是注册对了!
回复 支持 反对

使用道具 举报

签到天数: 1104 天

[LV.10]以坛为家III

1

主题

1551

帖子

1930

积分

Rank: 8Rank: 8

阅读权限
50
游币
33
精品值
8
热心值
0
分享值
0
在线时间
330 小时
注册时间
2016-10-1
最后登录
2021-9-22
发表于 2021-8-30 20:31:32 | 显示全部楼层
哇塞!这片子刺激,必须得看!!
回复 支持 反对

使用道具 举报

回帖须知
本站严禁灌水回复以及讽刺辱骂分享者的行为,轻者扣分警告,重者直接永久封禁。发帖前请详读:点击进入 。以免永久封禁。
 懒得打字?点击快捷回复➔➔ 
您需要登录后才可以回帖 登录 | 我要注册

本版积分规则

小黑屋|手机版|慢慢游社区 ( 站务处理service@mmyfilm.com )

GMT+8, 2021-9-23 16:48 , Processed in 0.312996 second(s), 36 queries .

Powered by Discuz! X3.4

© 2001-2013 Comsenz Inc.

快速回复 返回顶部 返回列表