慢慢游社区

 找回密码
 我要注册
搜索
查看: 506|回复: 25

[恐怖] [百度云][食人族系列][纯净收藏版][意大利][食人帝国 Mangiati vivi ][1980][意语中字][1080P]

[复制链接]

签到天数: 373 天

[LV.9]以坛为家II

76

主题

1074

帖子

4万

积分

Rank: 64Rank: 64Rank: 64Rank: 64Rank: 64Rank: 64Rank: 64Rank: 64Rank: 64Rank: 64Rank: 64Rank: 64Rank: 64Rank: 64Rank: 64Rank: 64

阅读权限
110
游币
39933
精品值
326
热心值
0
分享值
82
在线时间
836 小时
注册时间
2020-4-14
最后登录
2021-9-23

最佳新人天蝎座辰龙丑牛亥猪卯兔申猴巳蛇未羊午马戌狗寅虎酉鸡子鼠白羊座狮子座处女座天秤座双子座水瓶座金牛座双鱼座射手座巨蟹座摩羯座活跃会员

QQ
发表于 2021-8-29 20:59:19 | 显示全部楼层 |阅读模式
慢慢游社区_海报.png
导演: Umberto Lenzi
主演: Robert Kerman / Janet Agren / Ivan Rassimov
类型: 恐怖 / 冒险
制片国家/地区: 意大利
语言: 意大利语
上映日期: 1980-03-20
片长: 92 分钟 / UK: 85 分钟(heavily cut)
又名: Eaten Alive! / Doomed to Die / Eaten Alive by the Cannibals! / Mangiati vivi dai cannibali / The Emerald Jungle

食人帝国的剧情简介 · · · · · ·
  谢丽娜为了寻找失踪的姐姐戴安娜,和冒险家马克一起深入新几内亚的恐怖丛林,丛林中有一支古老的部落,他们有着狂热的宗教信仰,并还保留着残忍的活人祭祀,也就是所谓的“净化”。追寻中,他俩被食人族捕获,首领不愿放走戴安娜,又把谢丽娜认作是自己的新妾,肆意奴役...
食人帝国的图片 · · · · · ·

慢慢游社区_1.png 慢慢游社区_2.png 慢慢游社区_3.png 慢慢游社区_4.png 慢慢游社区_5.png 慢慢游社区_6.png 慢慢游社区_7.png
General
Complete name                  : 食人帝国 Mangiati vivi (1980).mp4
Format                         : MPEG-4
Format profile                 : Base Media
Codec ID                       : isom (isom/iso2/avc1/mp41)
File size                      : 2.26 GiB
Duration                       : 1 h 32 min
Overall bit rate               : 3 491 kb/s
Writing application            : Lavf57.83.100

Video
ID                             : 1
Format                         : AVC
Format/Info                    : Advanced Video Codec
Format profile                 : Main@L4
Format settings                : CABAC / 4 Ref Frames
Format settings, CABAC         : Yes
Format settings, Reference fra : 4 frames
Codec ID                       : avc1
Codec ID/Info                  : Advanced Video Coding
Duration                       : 1 h 32 min
Bit rate                       : 3 358 kb/s
Width                          : 1 920 pixels
Height                         : 1 080 pixels
Display aspect ratio           : 16:9
Frame rate mode                : Constant
Frame rate                     : 24.000 FPS
Color space                    : YUV
Chroma subsampling             : 4:2:0
Bit depth                      : 8 bits
Scan type                      : Progressive
Bits/(Pixel*Frame)             : 0.067
Stream size                    : 2.17 GiB (96%)
Writing library                : x264 core 148 r2762 90a61ec
Encoding settings              : cabac=1 / ref=1 / deblock=1:0:0 / analyse=0x1:0x111 / me=hex / subme=6 / psy=0 / mixed_ref=0 / me_range=16 / chroma_me=1 / trellis=1 / 8x8dct=0 / cqm=0 / deadzone=21,11 / fast_pskip=1 / chroma_qp_offset=0 / threads=24 / lookahead_threads=4 / sliced_threads=0 / nr=0 / decimate=1 / interlaced=0 / bluray_compat=0 / constrained_intra=0 / bframes=3 / b_pyramid=2 / b_adapt=1 / b_bias=0 / direct=1 / weightb=1 / open_gop=0 / weightp=1 / keyint=250 / keyint_min=24 / scenecut=40 / intra_refresh=0 / rc_lookahead=30 / rc=crf / mbtree=1 / crf=23.0 / qcomp=0.60 / qpmin=0 / qpmax=69 / qpstep=4 / ip_ratio=1.40 / aq=2:1.00
Color range                    : Limited
Transfer characteristics       : BT.709
Matrix coefficients            : BT.709
Codec configuration box        : avcC

Audio
ID                             : 2
Format                         : AAC LC
Format/Info                    : Advanced Audio Codec Low Complexity
Codec ID                       : mp4a-40-2
Duration                       : 1 h 32 min
Bit rate mode                  : Constant
Bit rate                       : 128 kb/s
Channel(s)                     : 2 channels
Channel layout                 : L R
Sampling rate                  : 44.1 kHz
Frame rate                     : 43.066 FPS (1024 SPF)
Compression mode               : Lossy
Stream size                    : 84.6 MiB (4%)
Default                        : Yes
Alternate group                : 1

解压与观看请删除后缀“删”字,请勿在线解压,谢谢
链接:>>点击进入百度云下载<<(←购买前请先验证分享链接是否有效)
提取码:

此处内容付费可见

向楼主支付【游币】或成为【特权组】才能显示 已有 12 人购买 

支付 80 游币 成为特权组
楼主精华帖
回复

使用道具 举报

签到天数: 152 天

[LV.7]常住居民III

10

主题

852

帖子

4910

积分

Rank: 16Rank: 16Rank: 16Rank: 16

阅读权限
70
游币
3856
精品值
0
热心值
0
分享值
10
在线时间
182 小时
注册时间
2018-8-21
最后登录
2021-9-22
发表于 2021-8-29 21:11:23 | 显示全部楼层
楼主发贴辛苦了,谢谢楼主的精彩分享!我觉得慢慢游是注册对了!
回复 支持 反对

使用道具 举报

签到天数: 105 天

[LV.6]常住居民II

56

主题

381

帖子

5万

积分

Rank: 64Rank: 64Rank: 64Rank: 64Rank: 64Rank: 64Rank: 64Rank: 64Rank: 64Rank: 64Rank: 64Rank: 64Rank: 64Rank: 64Rank: 64Rank: 64

阅读权限
110
游币
54845
精品值
119
热心值
0
分享值
97
在线时间
374 小时
注册时间
2021-5-25
最后登录
2021-9-23
发表于 2021-8-29 21:51:16 | 显示全部楼层
看来不用审核了
回复 支持 反对

使用道具 举报

该用户从未签到

0

主题

3978

帖子

9051

积分

Rank: 16Rank: 16Rank: 16Rank: 16

阅读权限
70
游币
4849
精品值
0
热心值
0
分享值
0
在线时间
224 小时
注册时间
2019-4-2
最后登录
2021-9-22
发表于 2021-8-29 22:35:47 | 显示全部楼层
谢谢楼主的精彩分享
回复 支持 反对

使用道具 举报

签到天数: 341 天

[LV.8]以坛为家I

0

主题

426

帖子

596

积分

Rank: 4

阅读权限
30
游币
20
精品值
0
热心值
0
分享值
0
在线时间
150 小时
注册时间
2020-2-29
最后登录
2021-9-22
发表于 2021-8-29 22:54:49 | 显示全部楼层

楼主发贴辛苦了,谢谢楼主的精彩分享
回复 支持 反对

使用道具 举报

签到天数: 1503 天

[LV.Master]伴坛终老

0

主题

2373

帖子

1万

积分

Rank: 32Rank: 32Rank: 32Rank: 32Rank: 32Rank: 32Rank: 32Rank: 32

阅读权限
90
游币
14454
精品值
19
热心值
0
分享值
0
在线时间
969 小时
注册时间
2014-12-22
最后登录
2021-9-22
发表于 2021-8-29 23:28:17 | 显示全部楼层
楼主发贴辛苦了,谢谢楼主的精彩分享
回复 支持 反对

使用道具 举报

签到天数: 796 天

[LV.10]以坛为家III

0

主题

3009

帖子

3513

积分

Rank: 8Rank: 8

阅读权限
50
游币
170
精品值
1
热心值
0
分享值
0
在线时间
332 小时
注册时间
2019-6-17
最后登录
2021-9-22
发表于 2021-8-30 00:46:46 | 显示全部楼层
楼主太厉害了!这个资源都能找到,辛苦了!我觉得慢慢游真是个好地方!
回复 支持 反对

使用道具 举报

签到天数: 93 天

[LV.6]常住居民II

0

主题

124

帖子

825

积分

Rank: 4

阅读权限
30
游币
665
精品值
0
热心值
0
分享值
0
在线时间
36 小时
注册时间
2021-5-6
最后登录
2021-9-23
发表于 2021-8-30 04:35:42 | 显示全部楼层
欧美经典电影,老电影很期待
回复 支持 反对

使用道具 举报

签到天数: 350 天

[LV.8]以坛为家I

0

主题

1000

帖子

1796

积分

Rank: 8Rank: 8

阅读权限
50
游币
393
精品值
0
热心值
0
分享值
0
在线时间
404 小时
注册时间
2019-5-17
最后登录
2021-9-23
发表于 2021-8-30 08:49:33 | 显示全部楼层
老电影很期待
回复 支持 反对

使用道具 举报

签到天数: 509 天

[LV.9]以坛为家II

0

主题

5292

帖子

6525

积分

Rank: 16Rank: 16Rank: 16Rank: 16

阅读权限
70
游币
867
精品值
5
热心值
0
分享值
0
在线时间
356 小时
注册时间
2019-7-4
最后登录
2021-9-23

活跃会员

发表于 2021-8-30 09:27:21 | 显示全部楼层
楼主发贴辛苦了,谢谢楼主的精彩分享!我觉得慢慢游是注册对了!
回复 支持 反对

使用道具 举报

回帖须知
本站严禁灌水回复以及讽刺辱骂分享者的行为,轻者扣分警告,重者直接永久封禁。发帖前请详读:点击进入 。以免永久封禁。
 懒得打字?点击快捷回复➔➔ 
您需要登录后才可以回帖 登录 | 我要注册

本版积分规则

小黑屋|手机版|慢慢游社区 ( 站务处理service@mmyfilm.com )

GMT+8, 2021-9-23 17:28 , Processed in 0.330701 second(s), 39 queries .

Powered by Discuz! X3.4

© 2001-2013 Comsenz Inc.

快速回复 返回顶部 返回列表