慢慢游社区

 找回密码
 我要注册
搜索
查看: 739|回复: 52

[剧情] [经典] 【终极收藏】【精武英雄】【1994】【李连杰/中山忍】【国粤双语/简繁中字】【BD1080P】【MKV-14G】【百度云】

  [复制链接]

签到天数: 124 天

[LV.7]常住居民III

86

主题

460

帖子

10万

积分

Rank: 64Rank: 64Rank: 64Rank: 64Rank: 64Rank: 64Rank: 64Rank: 64Rank: 64Rank: 64Rank: 64Rank: 64Rank: 64Rank: 64Rank: 64Rank: 64

阅读权限
110
游币
106933
精品值
413
热心值
0
分享值
55
在线时间
277 小时
注册时间
2021-3-11
最后登录
2021-9-23

天秤座最佳新人正太勋章色狼勋章猥琐勋章辰龙巳蛇寅虎酉鸡申猴亥猪巨蟹座狮子座摩羯座双子座天蝎座活跃会员射手座水瓶座金牛座白羊座处女座双鱼座丑牛卯兔未羊午马戌狗子鼠

发表于 2021-8-28 20:30:52 | 显示全部楼层 |阅读模式
慢慢游社区_p2431066926_副本.jpg
导演: 陈嘉上
编剧: 陈嘉上 / 叶广俭 / 林纪陶
主演: 李连杰 / 中山忍 / 钱小豪 / 蔡少芬 / 周比利 / 秦沛 / 仓田保昭 / 袁祥仁 / 楼学贤 / 高桥利道 / 谭淑梅 / 彭子晴 / 张浚鸿 / 李文标 / 林刚 / 麦咏麟 / 黄新 / 卢庆辉 / 刘思乐
类型: 剧情 / 动作
制片国家/地区: 中国香港 / 中国大陆
拍摄语言: 英语 / 粤语 / 日语 / 汉语普通话
全球票房: $ xx 亿美元
票房: x¥ 亿
上映日期: 1994-12-22(中国香港)
片长: 107分钟 / 98分钟(德国)
又名: Fist of Legend
8.8 (20w)  8.5(10.9万)
75(2w)
豆瓣ID: 1292895 / IMDB链接: tt0110200
豆瓣链接:https://movie.douban.com/subject/1292895/


精武英雄的剧情简介    20年代末,为完成师父的志愿,陈真(李连杰 饰)到东洋学先进技术,他喜欢着日本女孩山田光子(中山忍 饰)。因为师父霍元甲之死,陈真回到中国,协助师父之子霍廷恩(钱小豪 饰)主持精武门的业务,不料却引起了他的妒忌,师兄弟之间引发权力之争。   另一方面,陈真追查师父死因,怀疑是日军 军官藤田刚(周比利 饰)暗中使用慢性毒药杀死霍元甲。陈真请医生验尸,证实师父确系中毒而死。藤田刚恐阴谋败露,杀人嫁祸,展开了连场恶斗。不久,藤田刚挑战精武门,他诱使日本黑龙会总教头船越文夫向精武馆挑战。比武之日,双方开展了一场惊心动魄的决战。
【精武英雄: 本片的获奖】:
第14届香港电影金像奖:最佳动作设计(袁和平)
第15届中国电影金鸡奖:最佳合拍片 
   

慢慢游社区_Fist.of.Legend.1994.CHINESE.1080p.BluRay.x264.DD2.0.mkv_20210828_160330.766_副本.jpg
慢慢游社区_Fist.of.Legend.1994.CHINESE.1080p.BluRay.x264.DD2.0.mkv_20210828_160349.409_副本.jpg
慢慢游社区_Fist.of.Legend.1994.CHINESE.1080p.BluRay.x264.DD2.0.mkv_20210828_160527.436_副本.jpg
慢慢游社区_Fist.of.Legend.1994.CHINESE.1080p.BluRay.x264.DD2.0.mkv_20210828_160645.865_副本.jpg
慢慢游社区_Fist.of.Legend.1994.CHINESE.1080p.BluRay.x264.DD2.0.mkv_20210828_161030.490_副本.jpg
慢慢游社区_Fist.of.Legend.1994.CHINESE.1080p.BluRay.x264.DD2.0.mkv_20210828_161244.400_副本.jpg
慢慢游社区_Fist.of.Legend.1994.CHINESE.1080p.BluRay.x264.DD2.0.mkv_20210828_162318.393_副本.jpg
慢慢游社区_Fist.of.Legend.1994.CHINESE.1080p.BluRay.x264.DD2.0.mkv_20210828_161430.949_副本.jpg
慢慢游社区_Fist.of.Legend.1994.CHINESE.1080p.BluRay.x264.DD2.0.mkv_20210828_161723.691_副本.jpg
慢慢游社区_Fist.of.Legend.1994.CHINESE.1080p.BluRay.x264.DD2.0.mkv_20210828_161845.026_副本.jpg
慢慢游社区_Fist.of.Legend.1994.CHINESE.1080p.BluRay.x264.DD2.0.mkv_20210828_162417.310_副本.jpg
慢慢游社区_Fist.of.Legend.1994.CHINESE.1080p.BluRay.x264.DD2.0.mkv_20210828_162005.658_副本.jpg
慢慢游社区_Fist.of.Legend.1994.CHINESE.1080p.BluRay.x264.DD2.0.mkv_20210828_162655.266_副本.jpg
慢慢游社区_Fist.of.Legend.1994.CHINESE.1080p.BluRay.x264.DD2.0.mkv_20210828_162727.903_副本.jpg
慢慢游社区_Fist.of.Legend.1994.CHINESE.1080p.BluRay.x264.DD2.0.mkv_20210828_162820.438_副本.jpg
慢慢游社区_Fist.of.Legend.1994.CHINESE.1080p.BluRay.x264.DD2.0.mkv_20210828_162913.758_副本.jpg
慢慢游社区_Fist.of.Legend.1994.CHINESE.1080p.BluRay.x264.DD2.0.mkv_20210828_163903.605_副本.jpg
慢慢游社区_Fist.of.Legend.1994.CHINESE.1080p.BluRay.x264.DD2.0.mkv_20210828_163423.280_副本.jpg
慢慢游社区_Fist.of.Legend.1994.CHINESE.1080p.BluRay.x264.DD2.0.mkv_20210828_163601.766_副本.jpg
改后缀名为MKV即可在线播放。
文件信息
General
Unique ID                      : 210410572396593682410351784948545775204 (0x9E4B9A29BDD789DE9196489CFCCE6664)
Complete name                  : I:\Fist.of.Legend.1994.CHINESE.1080p.BluRay.x264.mkv
Format                         : Matroska
Format version                 : Version 4
File size                      : 14 GiB
Duration                       : 1 h 43 min
Overall bit rate               : 19.7 Mb/s
Movie name                     : Fist.of.Legend.1994.CHINESE.1080p.BluRay.x264
Encoded date                   : UTC 2021-08-26 22:30:09
Writing application            : mkvmerge v7.5.0 ('Glass Culture') 32bit built on Jan  4 2015 16:37:25
Writing library                : libebml v1.3.1 + libmatroska v1.4.2

Video
ID                             : 1
Format                         : AVC
Format/Info                    : Advanced Video Codec
Format settings                : CABAC / 4 Ref Frames
Format settings, CABAC         : Yes
Format settings, Reference fra : 4 frames
Codec ID                       : V_MPEG4/ISO/AVC
Duration                       : 1 h 43 min
Bit rate                       : 19.4 Mb/s
Width                          : 1 920 pixels
Height                         : 1 080 pixels
Display aspect ratio           : 16:9
Frame rate mode                : Constant
Frame rate                     : 23.976 (24000/1001) FPS
Color space                    : YUV
Chroma subsampling             : 4:2:0
Bit depth                      : 8 bits
Scan type                      : Progressive
Bits/(Pixel*Frame)             : 0.390
Stream size                    : 14.0 GiB (98%)
Title                          : chenzhen
Writing library                : x264 core 146 r2538kMod 121396



Audio #1
ID                             : 2
Format                         : AAC LC
Format/Info                    : Advanced Audio Codec Low Complexity
Codec ID                       : A_AAC-2
Duration                       : 1 h 43 min
Bit rate                       : 128 kb/s
Channel(s)                     : 2 channels
Channel layout                 : L R
Sampling rate                  : 48.0 kHz
Frame rate                     : 46.875 FPS (1024 SPF)
Compression mode               : Lossy
Delay relative to video        : 20 ms
Stream size                    : 94.7 MiB (1%)
Title                          : 国语
Language                       : Chinese

Audio #2
ID                             : 3
Format                         : AC-3
Format/Info                    : Audio Coding 3
Commercial name                : Dolby Digital
Codec ID                       : A_AC3
Duration                       : 1 h 43 min
Bit rate mode                  : Constant
Bit rate                       : 224 kb/s
Channel(s)                     : 2 channels
Channel layout                 : L R
Sampling rate                  : 48.0 kHz
Frame rate                     : 31.250 FPS (1536 SPF)
Compression mode               : Lossy
Stream size                    : 166 MiB (1%)
Language                       : Chinese
Service kind                   : Complete Main

下载地址:
链接:>>点击进入百度云下载<<(←购买前请先验证分享链接是否有效)

此处内容付费可见

向楼主支付【游币】或成为【特权组】才能显示 已有 28 人购买 

支付 80 游币 成为特权组
楼主精华帖
回复

使用道具 举报

签到天数: 16 天

[LV.4]偶尔看看III

16

主题

371

帖子

3534

积分

Rank: 8Rank: 8

阅读权限
50
游币
2496
精品值
52
热心值
0
分享值
0
在线时间
564 小时
注册时间
2018-6-30
最后登录
2021-9-21
发表于 2021-8-28 20:37:30 | 显示全部楼层
这东西我收了!谢谢楼主!有慢慢游真好!
回复 支持 反对

使用道具 举报

签到天数: 1134 天

[LV.10]以坛为家III

2

主题

1834

帖子

8222

积分

Rank: 16Rank: 16Rank: 16Rank: 16

阅读权限
70
游币
5190
精品值
85
热心值
0
分享值
0
在线时间
1028 小时
注册时间
2014-9-22
最后登录
2021-9-21
发表于 2021-8-28 21:06:58 | 显示全部楼层
这么好的电影可惜没有好的国语配音,如果有5.1的国语配音那就完美了
回复 支持 反对

使用道具 举报

签到天数: 293 天

[LV.8]以坛为家I

2

主题

312

帖子

1268

积分

Rank: 8Rank: 8

阅读权限
50
游币
336
精品值
0
热心值
0
分享值
0
在线时间
620 小时
注册时间
2015-12-26
最后登录
2021-9-22

热心会员推广达人

发表于 2021-8-28 21:09:39 | 显示全部楼层
感谢楼主分享,棒棒哒
回复 支持 反对

使用道具 举报

签到天数: 604 天

[LV.9]以坛为家II

4

主题

3140

帖子

6501

积分

Rank: 16Rank: 16Rank: 16Rank: 16

阅读权限
70
游币
2982
精品值
1
热心值
0
分享值
0
在线时间
377 小时
注册时间
2019-7-31
最后登录
2021-9-22
发表于 2021-8-28 21:12:33 | 显示全部楼层
楼主发贴辛苦了,谢谢楼主的精彩分享!我觉得慢慢游是注册对了!
回复 支持 反对

使用道具 举报

签到天数: 1281 天

[LV.10]以坛为家III

10

主题

3370

帖子

1万

积分

Rank: 32Rank: 32Rank: 32Rank: 32Rank: 32Rank: 32Rank: 32Rank: 32

阅读权限
90
游币
6713
精品值
139
热心值
0
分享值
1
在线时间
558 小时
注册时间
2017-10-1
最后登录
2021-9-17
发表于 2021-8-28 21:22:09 | 显示全部楼层
楼主发贴辛苦了,谢谢楼主的精彩分享!我觉得慢慢游是注册对了!
回复 支持 反对

使用道具 举报

签到天数: 488 天

[LV.9]以坛为家II

0

主题

1492

帖子

3126

积分

Rank: 8Rank: 8

阅读权限
50
游币
819
精品值
1
热心值
0
分享值
0
在线时间
813 小时
注册时间
2017-12-25
最后登录
2021-9-23
发表于 2021-8-28 21:23:15 来自手机 | 显示全部楼层
感谢,,,,,
回复

使用道具 举报

签到天数: 1079 天

[LV.10]以坛为家III

0

主题

1777

帖子

3533

积分

Rank: 8Rank: 8

阅读权限
50
游币
1217
精品值
17
热心值
0
分享值
0
在线时间
505 小时
注册时间
2016-1-17
最后登录
2021-9-22
发表于 2021-8-28 21:23:45 | 显示全部楼层
楼主太厉害了!这个资源都能找到,辛苦了!我觉得慢慢游真是个好地方!
回复 支持 反对

使用道具 举报

签到天数: 796 天

[LV.10]以坛为家III

0

主题

3009

帖子

3513

积分

Rank: 8Rank: 8

阅读权限
50
游币
170
精品值
1
热心值
0
分享值
0
在线时间
332 小时
注册时间
2019-6-17
最后登录
2021-9-22
发表于 2021-8-28 21:28:39 | 显示全部楼层
楼主如此诚意的分享如此精彩的内容,必须赞!我想我是一天也不能离开慢慢游。
回复 支持 反对

使用道具 举报

签到天数: 1520 天

[LV.Master]伴坛终老

0

主题

2595

帖子

3439

积分

Rank: 8Rank: 8

阅读权限
50
游币
252
精品值
0
热心值
0
分享值
0
在线时间
592 小时
注册时间
2015-12-2
最后登录
2021-9-23
发表于 2021-8-28 21:47:16 | 显示全部楼层
太经典了,已经看过无数遍了
回复 支持 反对

使用道具 举报

回帖须知
本站严禁灌水回复以及讽刺辱骂分享者的行为,轻者扣分警告,重者直接永久封禁。发帖前请详读:点击进入 。以免永久封禁。
 懒得打字?点击快捷回复➔➔ 
您需要登录后才可以回帖 登录 | 我要注册

本版积分规则

小黑屋|手机版|慢慢游社区 ( 站务处理service@mmyfilm.com )

GMT+8, 2021-9-23 16:09 , Processed in 0.290520 second(s), 39 queries .

Powered by Discuz! X3.4

© 2001-2013 Comsenz Inc.

快速回复 返回顶部 返回列表