慢慢游社区

 找回密码
 我要注册
搜索
查看: 517|回复: 29

[恐怖] [百度云][AI修复纯净收藏版][林正英][首发][精灵变][1992][国粤双语LD中字][96分钟][1080P]

[复制链接]

签到天数: 373 天

[LV.9]以坛为家II

76

主题

1074

帖子

4万

积分

Rank: 64Rank: 64Rank: 64Rank: 64Rank: 64Rank: 64Rank: 64Rank: 64Rank: 64Rank: 64Rank: 64Rank: 64Rank: 64Rank: 64Rank: 64Rank: 64

阅读权限
110
游币
39933
精品值
326
热心值
0
分享值
82
在线时间
836 小时
注册时间
2020-4-14
最后登录
2021-9-23

最佳新人天蝎座辰龙丑牛亥猪卯兔申猴巳蛇未羊午马戌狗寅虎酉鸡子鼠白羊座狮子座处女座天秤座双子座水瓶座金牛座双鱼座射手座巨蟹座摩羯座活跃会员

QQ
发表于 2021-8-26 20:58:18 | 显示全部楼层 |阅读模式
慢慢游社区_海报.png
导演: 卢坚
编剧: 卢坚 / 陈志成
主演: 林正英 / 倪星 / 吴镇宇 / 黄光亮 / 吴耀汉
类型: 喜剧 / 惊悚 / 奇幻
制片国家/地区: 中国香港
语言: 粤语
上映日期: 1992
片长: 95 分钟
又名: Banana Spirit

精灵变的剧情简介 · · · · · ·
  阿直(吴镇宇 饰)和阿车(倪星 饰)是一对好朋友。阿直的职业是殡仪馆的化妆师,因职业的关系从未结交过一个女朋友;阿车在叔叔陈师傅(林正英 饰)的跌打馆里帮忙,本身有点儿小道行,却是个不务正业、玩乐调皮的家伙。阿车欠下黑社会老大贵利雄(黃光亮 饰)一笔钱,为筹措资金绞尽脑汁。偶然机会两人与殡仪馆老板(吴耀汉 饰)打赌,在农历十五月圆之夜引出传说中的芭蕉精。为措资金,二人铤而走险。结果引出的芭蕉精化身为阿直所迷恋的模特Iris(傅丽人 饰),但他必须在初一将其送回,否则一尸两命,芭蕉精化做青烟,Iris也会魂归黄泉……

精灵变的图片 · · · · · ·
慢慢游社区_1.png 慢慢游社区_2.png 慢慢游社区_3.png 慢慢游社区_4.png 慢慢游社区_5.png 慢慢游社区_6.png
此资源本坛首发,未经许可,禁止任何形式的转载与转发
General
Unique ID                      : 252595211700120868610515004982668941936 (0xBE081175B333AEE4F9B02F47E451DA70)
Complete name                  : 精灵变 (1992).mkv
Format                         : Matroska
Format version                 : Version 4
File size                      : 1.26 GiB
Duration                       : 1 h 36 min
Overall bit rate               : 1 882 kb/s
Encoded date                   : UTC 2021-08-26 12:28:35
Writing application            : mkvmerge v20.0.0 ('I Am The Sun') 64-bit
Writing library                : libebml v1.3.5 + libmatroska v1.4.8

Video
ID                             : 1
Format                         : AVC
Format/Info                    : Advanced Video Codec
Format profile                 : Main@L4
Format settings                : CABAC / 4 Ref Frames
Format settings, CABAC         : Yes
Format settings, Reference fra : 4 frames
Codec ID                       : V_MPEG4/ISO/AVC
Duration                       : 1 h 36 min
Bit rate                       : 1 500 kb/s
Width                          : 1 878 pixels
Height                         : 1 080 pixels
Display aspect ratio           : 1.739
Frame rate mode                : Constant
Frame rate                     : 25.000 FPS
Color space                    : YUV
Chroma subsampling             : 4:2:0
Bit depth                      : 8 bits
Scan type                      : Progressive
Bits/(Pixel*Frame)             : 0.030
Stream size                    : 1.00 GiB (79%)
Writing library                : x264 core 148 r2762 90a61ec
Encoding settings              : cabac=1 / ref=1 / deblock=1:0:0 / analyse=0x1:0x111 / me=hex / subme=6 / psy=0 / mixed_ref=0 / me_range=16 / chroma_me=1 / trellis=1 / 8x8dct=0 / cqm=0 / deadzone=21,11 / fast_pskip=1 / chroma_qp_offset=0 / threads=24 / lookahead_threads=4 / sliced_threads=0 / nr=0 / decimate=1 / interlaced=0 / bluray_compat=0 / constrained_intra=0 / bframes=3 / b_pyramid=2 / b_adapt=1 / b_bias=0 / direct=1 / weightb=1 / open_gop=0 / weightp=1 / keyint=250 / keyint_min=25 / scenecut=40 / intra_refresh=0 / rc_lookahead=30 / rc=abr / mbtree=1 / bitrate=1500 / ratetol=1.0 / qcomp=0.60 / qpmin=0 / qpmax=69 / qpstep=4 / ip_ratio=1.40 / aq=2:1.00
Default                        : Yes
Forced                         : No
Color range                    : Limited
Transfer characteristics       : BT.709
Matrix coefficients            : BT.709

Audio #1
ID                             : 2
Format                         : AC-3
Format/Info                    : Audio Coding 3
Commercial name                : Dolby Digital
Codec ID                       : A_AC3
Duration                       : 1 h 36 min
Bit rate mode                  : Constant
Bit rate                       : 192 kb/s
Channel(s)                     : 2 channels
Channel layout                 : L R
Sampling rate                  : 48.0 kHz
Frame rate                     : 31.250 FPS (1536 SPF)
Bit depth                      : 16 bits
Compression mode               : Lossy
Stream size                    : 132 MiB (10%)
Title                          : 国语
Language                       : Chinese
Service kind                   : Complete Main
Default                        : Yes
Forced                         : Yes

Audio #2
ID                             : 3
Format                         : AC-3
Format/Info                    : Audio Coding 3
Commercial name                : Dolby Digital
Codec ID                       : A_AC3
Duration                       : 1 h 36 min
Bit rate mode                  : Constant
Bit rate                       : 192 kb/s
Channel(s)                     : 2 channels
Channel layout                 : L R
Sampling rate                  : 48.0 kHz
Frame rate                     : 31.250 FPS (1536 SPF)
Bit depth                      : 16 bits
Compression mode               : Lossy
Stream size                    : 132 MiB (10%)
Title                          : 粤语
Language                       : Chinese
Service kind                   : Complete Main
Default                        : No
Forced                         : No

解压与观看请删除后缀“删”字,请勿在线解压,谢谢
链接:>>点击进入百度云下载<<(←购买前请先验证分享链接是否有效)
提取码:

此处内容付费可见

向楼主支付【游币】或成为【特权组】才能显示 已有 24 人购买 

支付 300 游币 成为特权组
楼主精华帖
回复

使用道具 举报

签到天数: 359 天

[LV.8]以坛为家I

0

主题

835

帖子

2796

积分

Rank: 8Rank: 8

阅读权限
50
游币
1820
精品值
0
热心值
0
分享值
0
在线时间
141 小时
注册时间
2018-10-9
最后登录
2021-9-22
发表于 2021-8-26 21:20:51 | 显示全部楼层
感谢楼主分享。。。。。。。。。。。。
回复 支持 反对

使用道具 举报

签到天数: 838 天

[LV.10]以坛为家III

1

主题

1558

帖子

2324

积分

Rank: 8Rank: 8

阅读权限
50
游币
350
精品值
0
热心值
0
分享值
0
在线时间
416 小时
注册时间
2019-1-2
最后登录
2021-9-23
发表于 2021-8-26 21:36:03 | 显示全部楼层
楼主发贴辛苦了,谢谢楼主的精彩分享!我觉得慢慢游是注册对了!
回复 支持 反对

使用道具 举报

签到天数: 1281 天

[LV.10]以坛为家III

10

主题

3370

帖子

1万

积分

Rank: 32Rank: 32Rank: 32Rank: 32Rank: 32Rank: 32Rank: 32Rank: 32

阅读权限
90
游币
6713
精品值
139
热心值
0
分享值
1
在线时间
558 小时
注册时间
2017-10-1
最后登录
2021-9-17
发表于 2021-8-26 21:49:26 | 显示全部楼层
楼主发贴辛苦了,谢谢楼主的精彩分享!我觉得慢慢游是注册对了!
回复 支持 反对

使用道具 举报

签到天数: 154 天

[LV.7]常住居民III

2

主题

384

帖子

9230

积分

Rank: 32Rank: 32Rank: 32Rank: 32Rank: 32Rank: 32Rank: 32Rank: 32

阅读权限
150
游币
8484
精品值
59
热心值
0
分享值
0
在线时间
244 小时
注册时间
2017-8-2
最后登录
2021-9-20
发表于 2021-8-26 21:59:14 | 显示全部楼层
楼主发贴辛苦了,谢谢楼主的精彩分享!我觉得慢慢游是注册对了!
回复 支持 反对

使用道具 举报

签到天数: 354 天

[LV.8]以坛为家I

48

主题

722

帖子

1万

积分

Rank: 32Rank: 32Rank: 32Rank: 32Rank: 32Rank: 32Rank: 32Rank: 32

阅读权限
90
游币
17817
精品值
0
热心值
0
分享值
190
在线时间
300 小时
注册时间
2015-9-2
最后登录
2021-9-23

最佳新人

发表于 2021-8-26 22:02:58 | 显示全部楼层
楼主发贴辛苦了,谢谢楼主的精彩分享!我觉得慢慢游是注册对了!
回复 支持 反对

使用道具 举报

签到天数: 381 天

[LV.9]以坛为家II

2

主题

460

帖子

701

积分

Rank: 4

阅读权限
30
游币
137
精品值
0
热心值
0
分享值
0
在线时间
104 小时
注册时间
2018-7-8
最后登录
2021-9-19
发表于 2021-8-26 22:41:49 | 显示全部楼层
不知道修复怎么样,这个真是稀缺资源,谢谢分享。
回复 支持 反对

使用道具 举报

签到天数: 5 天

[LV.2]偶尔看看I

0

主题

221

帖子

331

积分

Rank: 4

阅读权限
30
游币
34
精品值
4
热心值
0
分享值
0
在线时间
68 小时
注册时间
2019-11-23
最后登录
2021-9-23

活跃会员

发表于 2021-8-26 22:51:44 | 显示全部楼层
一定要回复才有下载码。
回复 支持 反对

使用道具 举报

该用户从未签到

0

主题

3978

帖子

9051

积分

Rank: 16Rank: 16Rank: 16Rank: 16

阅读权限
70
游币
4849
精品值
0
热心值
0
分享值
0
在线时间
224 小时
注册时间
2019-4-2
最后登录
2021-9-22
发表于 2021-8-26 23:24:47 | 显示全部楼层

楼主如此诚意的分享如此精彩的内容,必须赞!
回复 支持 反对

使用道具 举报

签到天数: 2437 天

[LV.Master]伴坛终老

0

主题

5443

帖子

1万

积分

Rank: 32Rank: 32Rank: 32Rank: 32Rank: 32Rank: 32Rank: 32Rank: 32

阅读权限
90
游币
10357
精品值
8
热心值
0
分享值
0
在线时间
1747 小时
注册时间
2014-11-18
最后登录
2021-9-23
发表于 2021-8-27 00:19:47 | 显示全部楼层
楼主如此诚意的分享如此精彩的内容,必须赞!我想我是一天也不能离开慢慢游。
回复 支持 反对

使用道具 举报

回帖须知
本站严禁灌水回复以及讽刺辱骂分享者的行为,轻者扣分警告,重者直接永久封禁。发帖前请详读:点击进入 。以免永久封禁。
 懒得打字?点击快捷回复➔➔ 
您需要登录后才可以回帖 登录 | 我要注册

本版积分规则

小黑屋|手机版|慢慢游社区 ( 站务处理service@mmyfilm.com )

GMT+8, 2021-9-23 17:05 , Processed in 0.318120 second(s), 39 queries .

Powered by Discuz! X3.4

© 2001-2013 Comsenz Inc.

快速回复 返回顶部 返回列表