慢慢游社区

 找回密码
 我要注册
搜索
查看: 1258|回复: 60

[恐怖] [百度云][AI修复纯净收藏版][论坛首发][林正英][血玫瑰][1988][99分钟][1080P][国粤双语中字]

  [复制链接]

签到天数: 373 天

[LV.9]以坛为家II

76

主题

1074

帖子

4万

积分

Rank: 64Rank: 64Rank: 64Rank: 64Rank: 64Rank: 64Rank: 64Rank: 64Rank: 64Rank: 64Rank: 64Rank: 64Rank: 64Rank: 64Rank: 64Rank: 64

阅读权限
110
游币
39933
精品值
326
热心值
0
分享值
82
在线时间
836 小时
注册时间
2020-4-14
最后登录
2021-9-23

最佳新人天蝎座辰龙丑牛亥猪卯兔申猴巳蛇未羊午马戌狗寅虎酉鸡子鼠白羊座狮子座处女座天秤座双子座水瓶座金牛座双鱼座射手座巨蟹座摩羯座活跃会员

QQ
发表于 2021-8-23 21:17:32 | 显示全部楼层 |阅读模式
声明:此资源是本坛@文文H发布,感谢@文文H提供资源,本人AI修复,本坛首发,禁止转发与转载,另,AI修复非常烧显卡,基本上都需要三天左右才能修复完成,修复期间显卡温度就没有低于80度以下
慢慢游社区_海报.png
导演: 蓝乃才
编剧: 胡雪丽
主演: 林正英 / 王小凤 / 金燕玲 / 薛芷伦 / 王霄 / 更多...
类型: 剧情 / 惊悚 / 恐怖
制片国家/地区: 中国香港
语言: 粤语
上映日期: 1988-10-07
片长: 99分钟
又名: Her Vengeance

血玫瑰的剧情简介 · · · · · ·
  一场意外中,艳舞团公关主任方洁莹(王小凤 饰)和前来观看表演的五个男人发生了冲突,惨遭五人的强暴。心灵受到强烈伤害的她还因此染上了病,身体亦痛苦不堪。绝望和愤怒之中,方洁莹下决心一定要找到这五个人,报仇雪恨,就这样,她追随着五人的脚步,登上了驶往香港的轮船。
  在香港,无处可去又身无分文的方洁莹意外的在求职的酒吧遇见了姐姐的前男友周俊雄(林正英 饰),又受到酒保苏珊(薛芷伦 饰)的帮助照拂,总算找到了工作。一次偶然中,方洁莹遇见了自己的仇人之一,设下圈套将其杀死,因而让另外四人开始对她充满了防备,他们开始主动寻找方洁莹的踪迹,想要主动出击。

血玫瑰的图片 · · · · · ·
慢慢游社区_1.png 慢慢游社区_2.png 慢慢游社区_3.png 慢慢游社区_4.png 慢慢游社区_5.png 慢慢游社区_6.png

General
Unique ID                      : 39244617584756592142853945525355552533 (0x1D863D08D8F047850BDC2764EFD21F15)
Complete name                  : 血玫瑰 (1988).mkv
Format                         : Matroska
Format version                 : Version 4
File size                      : 1.31 GiB
Duration                       : 1 h 38 min
Overall bit rate               : 1 899 kb/s
Encoded date                   : UTC 2021-08-11 01:50:59
Writing application            : mkvmerge v20.0.0 ('I Am The Sun') 64-bit
Writing library                : libebml v1.3.5 + libmatroska v1.4.8

Video
ID                             : 1
Format                         : AVC
Format/Info                    : Advanced Video Codec
Format profile                 : Main@L4
Format settings                : CABAC / 4 Ref Frames
Format settings, CABAC         : Yes
Format settings, Reference fra : 4 frames
Codec ID                       : V_MPEG4/ISO/AVC
Duration                       : 1 h 38 min
Bit rate                       : 1 500 kb/s
Width                          : 1 904 pixels
Height                         : 1 080 pixels
Display aspect ratio           : 16:9
Frame rate mode                : Constant
Frame rate                     : 25.000 FPS
Color space                    : YUV
Chroma subsampling             : 4:2:0
Bit depth                      : 8 bits
Scan type                      : Progressive
Bits/(Pixel*Frame)             : 0.029
Stream size                    : 1.04 GiB (80%)
Writing library                : x264 core 148 r2762 90a61ec
Encoding settings              : cabac=1 / ref=1 / deblock=1:0:0 / analyse=0x1:0x111 / me=hex / subme=6 / psy=0 / mixed_ref=0 / me_range=16 / chroma_me=1 / trellis=1 / 8x8dct=0 / cqm=0 / deadzone=21,11 / fast_pskip=1 / chroma_qp_offset=0 / threads=24 / lookahead_threads=4 / sliced_threads=0 / nr=0 / decimate=1 / interlaced=0 / bluray_compat=0 / constrained_intra=0 / bframes=3 / b_pyramid=2 / b_adapt=1 / b_bias=0 / direct=1 / weightb=1 / open_gop=0 / weightp=1 / keyint=250 / keyint_min=25 / scenecut=40 / intra_refresh=0 / rc_lookahead=30 / rc=abr / mbtree=1 / bitrate=1500 / ratetol=1.0 / qcomp=0.60 / qpmin=0 / qpmax=69 / qpstep=4 / ip_ratio=1.40 / aq=2:1.00
Default                        : Yes
Forced                         : No
Color range                    : Limited
Transfer characteristics       : BT.709
Matrix coefficients            : BT.709

Audio #1
ID                             : 2
Format                         : AC-3
Format/Info                    : Audio Coding 3
Commercial name                : Dolby Digital
Codec ID                       : A_AC3
Duration                       : 1 h 38 min
Bit rate mode                  : Constant
Bit rate                       : 192 kb/s
Channel(s)                     : 2 channels
Channel layout                 : L R
Sampling rate                  : 48.0 kHz
Frame rate                     : 31.250 FPS (1536 SPF)
Bit depth                      : 16 bits
Compression mode               : Lossy
Stream size                    : 136 MiB (10%)
Title                          : 国语
Language                       : Chinese
Service kind                   : Complete Main
Default                        : Yes
Forced                         : Yes

Audio #2
ID                             : 3
Format                         : AC-3
Format/Info                    : Audio Coding 3
Commercial name                : Dolby Digital
Codec ID                       : A_AC3
Duration                       : 1 h 38 min
Bit rate mode                  : Constant
Bit rate                       : 192 kb/s
Channel(s)                     : 2 channels
Channel layout                 : L R
Sampling rate                  : 48.0 kHz
Frame rate                     : 31.250 FPS (1536 SPF)
Bit depth                      : 16 bits
Compression mode               : Lossy
Stream size                    : 136 MiB (10%)
Title                          : 粤语
Language                       : Chinese
Service kind                   : Complete Main
Default                        : No
Forced                         : No

Text #1
ID                             : 4
Format                         : UTF-8
Codec ID                       : S_TEXT/UTF8
Codec ID/Info                  : UTF-8 Plain Text
Duration                       : 1 h 26 min
Bit rate                       : 28 b/s
Count of elements              : 703
Stream size                    : 18.2 KiB (0%)
Title                          : 国配繁中
Language                       : Chinese
Default                        : Yes
Forced                         : Yes

Text #2
ID                             : 5
Format                         : UTF-8
Codec ID                       : S_TEXT/UTF8
Codec ID/Info                  : UTF-8 Plain Text
Duration                       : 1 h 26 min
Bit rate                       : 29 b/s
Count of elements              : 698
Stream size                    : 18.5 KiB (0%)
Title                          : 粤配繁中
Language                       : Chinese
Default                        : No
Forced                         : Yes

解压与观看请删除后缀“删”字,请勿在线解压,谢谢

链接:>>点击进入百度云下载<<(←购买前请先验证分享链接是否有效)
提取码:

此处内容付费可见

向楼主支付【游币】或成为【特权组】才能显示 已有 41 人购买 

支付 300 游币 成为特权组
楼主精华帖
回复

使用道具 举报

签到天数: 643 天

[LV.9]以坛为家II

2

主题

1013

帖子

6728

积分

Rank: 16Rank: 16Rank: 16Rank: 16

阅读权限
70
游币
5123
精品值
95
热心值
0
分享值
0
在线时间
402 小时
注册时间
2015-2-12
最后登录
2021-9-8
发表于 2021-8-23 21:20:12 | 显示全部楼层
楼主很牛啊,现在AI修复不容易,感谢分享。
回复 支持 反对

使用道具 举报

签到天数: 359 天

[LV.8]以坛为家I

0

主题

835

帖子

2796

积分

Rank: 8Rank: 8

阅读权限
50
游币
1820
精品值
0
热心值
0
分享值
0
在线时间
141 小时
注册时间
2018-10-9
最后登录
2021-9-22
发表于 2021-8-23 21:26:25 | 显示全部楼层
感谢楼主分享。。。。。。。。。
回复 支持 反对

使用道具 举报

签到天数: 1281 天

[LV.10]以坛为家III

10

主题

3370

帖子

1万

积分

Rank: 32Rank: 32Rank: 32Rank: 32Rank: 32Rank: 32Rank: 32Rank: 32

阅读权限
90
游币
6713
精品值
139
热心值
0
分享值
1
在线时间
558 小时
注册时间
2017-10-1
最后登录
2021-9-17
发表于 2021-8-23 21:28:51 | 显示全部楼层
楼主发贴辛苦了,谢谢楼主的精彩分享!我觉得慢慢游是注册对了!
回复 支持 反对

使用道具 举报

签到天数: 339 天

[LV.8]以坛为家I

71

主题

1519

帖子

2万

积分

Rank: 32Rank: 32Rank: 32Rank: 32Rank: 32Rank: 32Rank: 32Rank: 32

阅读权限
90
游币
9670
精品值
7028
热心值
0
分享值
365
在线时间
1075 小时
注册时间
2020-10-3
最后登录
2021-9-23

最佳新人

发表于 2021-8-23 21:31:38 | 显示全部楼层
制作辛苦,非常感谢!
回复 支持 反对

使用道具 举报

签到天数: 591 天

[LV.9]以坛为家II

2

主题

878

帖子

1027

积分

Rank: 8Rank: 8

阅读权限
50
游币
27
精品值
0
热心值
0
分享值
0
在线时间
122 小时
注册时间
2019-12-29
最后登录
2021-9-22
发表于 2021-8-23 21:39:36 | 显示全部楼层
感谢楼主的无私分享!要想慢慢游好 就靠你我他
回复 支持 反对

使用道具 举报

签到天数: 517 天

[LV.9]以坛为家II

0

主题

626

帖子

942

积分

Rank: 4

阅读权限
30
游币
156
精品值
0
热心值
0
分享值
0
在线时间
160 小时
注册时间
2015-3-19
最后登录
2021-9-23
发表于 2021-8-23 22:12:12 | 显示全部楼层
楼主发贴辛苦了,谢谢楼主的精彩分享!我觉得慢慢游是注册对了!
回复 支持 反对

使用道具 举报

签到天数: 536 天

[LV.9]以坛为家II

0

主题

1110

帖子

9524

积分

Rank: 16Rank: 16Rank: 16Rank: 16

阅读权限
70
游币
7705
精品值
50
热心值
0
分享值
12
在线时间
587 小时
注册时间
2020-3-13
最后登录
2021-9-23
发表于 2021-8-23 22:30:30 | 显示全部楼层
楼主发贴辛苦了,谢谢楼主的精彩分享!我觉得慢慢游是注册对了!
回复 支持 反对

使用道具 举报

签到天数: 191 天

[LV.7]常住居民III

0

主题

352

帖子

1万

积分

Rank: 32Rank: 32Rank: 32Rank: 32Rank: 32Rank: 32Rank: 32Rank: 32

阅读权限
150
游币
13528
精品值
13
热心值
0
分享值
0
在线时间
652 小时
注册时间
2014-10-22
最后登录
2021-9-23
发表于 2021-8-23 22:46:00 | 显示全部楼层
支持一下~~~~收了
回复 支持 反对

使用道具 举报

签到天数: 658 天

[LV.9]以坛为家II

0

主题

890

帖子

2129

积分

Rank: 8Rank: 8

阅读权限
50
游币
1007
精品值
24
热心值
0
分享值
0
在线时间
184 小时
注册时间
2019-5-10
最后登录
2021-9-22
发表于 2021-8-23 22:59:00 | 显示全部楼层
英叔的,收了,谢谢分享
回复 支持 反对

使用道具 举报

回帖须知
本站严禁灌水回复以及讽刺辱骂分享者的行为,轻者扣分警告,重者直接永久封禁。发帖前请详读:点击进入 。以免永久封禁。
 懒得打字?点击快捷回复➔➔ 
您需要登录后才可以回帖 登录 | 我要注册

本版积分规则

小黑屋|手机版|慢慢游社区 ( 站务处理service@mmyfilm.com )

GMT+8, 2021-9-23 17:31 , Processed in 0.310198 second(s), 36 queries .

Powered by Discuz! X3.4

© 2001-2013 Comsenz Inc.

快速回复 返回顶部 返回列表