慢慢游社区

 找回密码
 我要注册
搜索
查看: 1664|回复: 247

[已封装] 红包帖 全网首发《毁灭之日第2部》双国语10.5.Apocalypse.2006.Part2.1080p.BluRay.x264.2AUDio-CHM.mkv

  [复制链接]

签到天数: 33 天

[LV.5]常住居民I

445

主题

667

帖子

8万

积分

Rank: 64Rank: 64Rank: 64Rank: 64Rank: 64Rank: 64Rank: 64Rank: 64Rank: 64Rank: 64Rank: 64Rank: 64Rank: 64Rank: 64Rank: 64Rank: 64

阅读权限
150
游币
35444
精品值
23645
热心值
0
分享值
439
在线时间
2053 小时
注册时间
2015-4-15
最后登录
2021-8-2

热心会员推广达人宣传达人突出贡献优秀版主荣誉管理正太勋章色狼勋章猥琐勋章大叔勋章皇冠勋章音频组专属勋章风度翩翩勋章

发表于 2021-6-29 21:41:56 | 显示全部楼层 |阅读模式
本帖最后由 Autohome 于 2021-8-1 18:57 编辑

本片一共上下两部,六区国语取自自己的DVD国语,辽译国语取自多年前收藏的国语视频,本人已经调制合成双国语,外加字幕,现分享给本社区,为做纪录收50游币记录,

  不得搬运到国语视界!!!
慢慢游社区_34592932_sa.jpg


导演: John Lafia
主演: Kim Delaney .... Dr. Samantha Hill / Beau Bridges .... President Paul Hollister / Frank Langella .... Dr. Hill / Melissa Sue Anderson .... First Lady Megan Hollister / Dean Cain .... Brad / [url=]更多...[/url]
类型: 剧情 / 科幻 / 灾难
制片国家/地区: U.S.A
语言: 六区国语、辽译国语、英语
上映日期: 2006-03-18
片长: 165分钟
IMDb: tt0463850




剧情简介 · · · · · ·  本剧是NBC颇具震撼力的电视迷你短剧《10.5》(地动天惊)的续集和终结篇。在上一集中,强烈的地壳运动所引发的10.5级恐怖地震毁灭了美国西海岸,改变了地核结构,直接威胁到到北美甚至整个西半球,造成了一系列连锁灾害:夏威夷被海啸吞没,胡佛被摧毁,洛杉矶沉没……《10.5: Apocalypse》(毁灭之日)的视觉效果达到了同类迷你剧中的高水准。
  为了拯救更多的生命、挽救国家,Hollister总统(扮演者:艾美奖和金球奖双料明星Beau Bridges,SG-1 第九季中可爱的将军)决定孤注一掷。他找来全国最顶级也是最有争议的地震学家Samantha Hill博士(扮演者:艾美奖得主Kim Delaney)和她的上司兼前男友Jordan Fisher博士(扮演者:David Cubitt),评估最近一次地震所带来的冲击。Hill绞尽脑汁,没办法弄明白为什么会有持续不断的地震和火山爆发,但她意外发现了也是地震学家的父亲(扮演者:Frank Langella)多年前作出的一个难以置信的假设。如果这个假设正确,将会有更大的灾难到来,北美大陆也将彻底被改变:将被分割成两块独立的大陆。





General
Unique ID                      : 146730875812251627727395089751633956206 (0x6E6356B84624889A42D8475346660D6E)
Complete name                  : G:\毁灭之日第2集双国语10.5.Apocalypse.2006.Part2.1080p.BluRay.x264.2AUDio-CHM.mkv
Format                         : Matroska
Format version                 : Version 4
File size                      : 8.54 GiB
Duration                       : 1 h 24 min
Overall bit rate               : 14.5 Mb/s
Movie name                     : 10.5.Apocalypse.2006.Part2.1080p.BluRay.x264.DTS-FGT
Encoded date                   : UTC 2021-06-29 11:43:13
Writing application            : mkvmerge v55.0.0 ('Waiting For Space') 64-bit
Writing library                : libebml v1.4.2 + libmatroska v1.6.4
Cover                          : Yes
Attachments                    : cover.jpg / cover_land.jpg / small_cover.jpg / small_cover_land.jpg


Video
ID                             : 1
Format                         : AVC
Format/Info                    : Advanced Video Codec
Format profile                 : High@L4.1
Format settings                : CABAC / 4 Ref Frames
Format settings, CABAC         : Yes
Format settings, Reference fra : 4 frames
Codec ID                       : V_MPEG4/ISO/AVC
Duration                       : 1 h 24 min
Bit rate                       : 12.9 Mb/s
Width                          : 1 920 pixels
Height                         : 1 080 pixels
Display aspect ratio           : 16:9
Frame rate mode                : Constant
Frame rate                     : 23.976 (24000/1001) FPS
Color space                    : YUV
Chroma subsampling             : 4:2:0
Bit depth                      : 8 bits
Scan type                      : Progressive
Bits/(Pixel*Frame)             : 0.260
Stream size                    : 7.63 GiB (89%)
Writing library                : x264 core 142 r2409 d6b4e63
Encoding settings              : cabac=1 / ref=4 / deblock=1:-3:-3 / analyse=0x3:0x133 / me=umh / subme=8 / psy=1 / psy_rd=1.00:0.15 / mixed_ref=1 / me_range=16 / chroma_me=1 / trellis=1 / 8x8dct=1 / cqm=0 / deadzone=21,11 / fast_pskip=0 / chroma_qp_offset=-3 / threads=12 / lookahead_threads=2 / sliced_threads=0 / nr=0 / decimate=1 / interlaced=0 / bluray_compat=0 / constrained_intra=0 / bframes=3 / b_pyramid=2 / b_adapt=2 / b_bias=0 / direct=3 / weightb=1 / open_gop=0 / weightp=2 / keyint=240 / keyint_min=24 / scenecut=40 / intra_refresh=0 / rc_lookahead=50 / rc=crf / mbtree=1 / crf=20.0 / qcomp=0.60 / qpmin=0 / qpmax=69 / qpstep=4 / ip_ratio=1.40 / aq=1:1.00
Language                       : English
Default                        : Yes
Forced                         : No


Audio #1
ID                             : 2
Format                         : AC-3
Format/Info                    : Audio Coding 3
Commercial name                : Dolby Digital
Codec ID                       : A_AC3
Duration                       : 1 h 24 min
Bit rate mode                  : Constant
Bit rate                       : 384 kb/s
Channel(s)                     : 2 channels
Channel layout                 : L R
Sampling rate                  : 48.0 kHz
Frame rate                     : 31.250 FPS (1536 SPF)
Compression mode               : Lossy
Stream size                    : 232 MiB (3%)
Title                          : CHM国配辽译
Language                       : Chinese
Service kind                   : Complete Main
Default                        : Yes
Forced                         : Yes


Audio #2
ID                             : 3
Format                         : AC-3
Format/Info                    : Audio Coding 3
Commercial name                : Dolby Digital
Codec ID                       : A_AC3
Duration                       : 1 h 24 min
Bit rate mode                  : Constant
Bit rate                       : 384 kb/s
Channel(s)                     : 2 channels
Channel layout                 : L R
Sampling rate                  : 48.0 kHz
Frame rate                     : 31.250 FPS (1536 SPF)
Compression mode               : Lossy
Stream size                    : 232 MiB (3%)
Title                          : CHM国配六区
Language                       : Chinese
Service kind                   : Complete Main
Default                        : No
Forced                         : No


Audio #3
ID                             : 5
Format                         : DTS
Format/Info                    : Digital Theater Systems
Codec ID                       : A_DTS
Duration                       : 1 h 24 min
Bit rate mode                  : Constant
Bit rate                       : 768 kb/s
Channel(s)                     : 2 channels
Channel layout                 : L R
Sampling rate                  : 48.0 kHz
Frame rate                     : 93.750 FPS (512 SPF)
Bit depth                      : 24 bits
Compression mode               : Lossy
Stream size                    : 464 MiB (5%)
Language                       : English
Default                        : No
Forced                         : No


Text
ID                             : 4
Format                         : UTF-8
Codec ID                       : S_TEXT/UTF8
Codec ID/Info                  : UTF-8 Plain Text
Duration                       : 1 h 23 min
Bit rate                       : 50 b/s
Count of elements              : 1167
Stream size                    : 31.0 KiB (0%)
Language                       : Chinese
Default                        : Yes
Forced                         : No--
来自百度网盘超级会员V1的分享复制这段内容后打开百度网盘手机App,操作更方便哦
链接:>>点击进入百度云下载<<(←购买前请先验证分享链接是否有效)
游客,需要您回复成为VIP才能查看隐藏内容







点评

已上传完毕,购买的兄弟请下载  发表于 2021-6-30 12:50
上传中,怎么回事?????  发表于 2021-6-30 08:24

评分

参与人数 5游币 +50 精品值 +10 分享值 +5 收起 理由
光影流转 + 50 + 10 + 1 慢慢游有你更精彩!
789666 + 1 慢慢游有你更精彩!
星空凤凰 + 1
lchh777 + 1
古藤书斋 + 1

查看全部评分

楼主精华帖
回复

使用道具 举报

签到天数: 242 天

[LV.8]以坛为家I

0

主题

330

帖子

1584

积分

Rank: 8Rank: 8

阅读权限
50
游币
1180
精品值
0
热心值
0
分享值
0
在线时间
74 小时
注册时间
2020-5-13
最后登录
2021-8-2
发表于 2021-6-29 21:49:10 | 显示全部楼层
感谢分享。。。。。
回复

使用道具 举报

签到天数: 817 天

[LV.10]以坛为家III

0

主题

1976

帖子

2230

积分

Rank: 8Rank: 8

阅读权限
50
游币
25
精品值
0
热心值
0
分享值
0
在线时间
229 小时
注册时间
2018-8-24
最后登录
2021-8-2
发表于 2021-6-29 21:51:38 | 显示全部楼层

回帖奖励 +25 游币

这东西我收了!谢谢楼主!有慢慢游真好!
回复 支持 反对

使用道具 举报

签到天数: 929 天

[LV.10]以坛为家III

62

主题

2057

帖子

9万

积分

Rank: 64Rank: 64Rank: 64Rank: 64Rank: 64Rank: 64Rank: 64Rank: 64Rank: 64Rank: 64Rank: 64Rank: 64Rank: 64Rank: 64Rank: 64Rank: 64

阅读权限
110
游币
89395
精品值
234
热心值
0
分享值
54
在线时间
1120 小时
注册时间
2018-11-5
最后登录
2021-8-2

最佳新人

发表于 2021-6-29 22:03:37 | 显示全部楼层

回帖奖励 +25 游币

是电影还是剧集,分不清
回复 支持 反对

使用道具 举报

签到天数: 494 天

[LV.9]以坛为家II

9

主题

712

帖子

1454

积分

Rank: 8Rank: 8

阅读权限
50
游币
575
精品值
0
热心值
0
分享值
15
在线时间
137 小时
注册时间
2019-6-26
最后登录
2021-8-2
发表于 2021-6-29 22:04:05 | 显示全部楼层
Audio #3
ID                             : 5
Format                         : DTS
Format/Info                    : Digital Theater Systems
Codec ID                       : A_DTS
Duration                       : 1 h 24 min
Bit rate mode                  : Constant
Bit rate                       : 768 kb/s
Channel(s)                     : 2 channels
Channel layout                 : L R
Sampling rate                  : 48.0 kHz
DTS音频有两声道吗
回复 支持 反对

使用道具 举报

签到天数: 404 天

[LV.9]以坛为家II

382

主题

1667

帖子

1万

积分

Rank: 32Rank: 32Rank: 32Rank: 32Rank: 32Rank: 32Rank: 32Rank: 32

阅读权限
90
游币
7909
精品值
318
热心值
0
分享值
72
在线时间
1581 小时
注册时间
2019-8-15
最后登录
2021-8-2
发表于 2021-6-29 22:05:20 | 显示全部楼层
既然你诚信诚意的推荐了,那我就满怀欣喜的看看!
回复 支持 反对

使用道具 举报

签到天数: 404 天

[LV.9]以坛为家II

382

主题

1667

帖子

1万

积分

Rank: 32Rank: 32Rank: 32Rank: 32Rank: 32Rank: 32Rank: 32Rank: 32

阅读权限
90
游币
7909
精品值
318
热心值
0
分享值
72
在线时间
1581 小时
注册时间
2019-8-15
最后登录
2021-8-2
发表于 2021-6-29 22:05:58 | 显示全部楼层

回帖奖励 +25 游币

本资源找了很久了,终于在慢慢游找到,感谢您的分享。祝慢慢游越来越好!
回复 支持 反对

使用道具 举报

签到天数: 618 天

[LV.9]以坛为家II

0

主题

1130

帖子

3781

积分

Rank: 8Rank: 8

阅读权限
50
游币
98
精品值
0
热心值
0
分享值
0
在线时间
2554 小时
注册时间
2019-3-24
最后登录
2021-8-2
发表于 2021-6-29 22:06:57 | 显示全部楼层

回帖奖励 +25 游币

楼主如此诚意的分享如此精彩的内容,必须赞!我想我是一天也不能离开慢慢游。
回复 支持 反对

使用道具 举报

签到天数: 1322 天

[LV.10]以坛为家III

0

主题

3925

帖子

1万

积分

Rank: 32Rank: 32Rank: 32Rank: 32Rank: 32Rank: 32Rank: 32Rank: 32

阅读权限
90
游币
5888
精品值
0
热心值
0
分享值
0
在线时间
2113 小时
注册时间
2017-7-5
最后登录
2021-8-2

活跃会员

发表于 2021-6-29 22:28:17 | 显示全部楼层

回帖奖励 +25 游币

楼主太厉害了!这个资源都能找到,辛苦了!
回复 支持 反对

使用道具 举报

签到天数: 539 天

[LV.9]以坛为家II

2

主题

787

帖子

1029

积分

Rank: 8Rank: 8

阅读权限
50
游币
130
精品值
0
热心值
0
分享值
0
在线时间
112 小时
注册时间
2019-12-29
最后登录
2021-8-1
发表于 2021-6-29 22:30:38 | 显示全部楼层

回帖奖励 +25 游币

既然你诚信诚意的推荐了,那我就满怀欣喜的看看!
回复 支持 反对

使用道具 举报

回帖须知
本站严禁灌水回复以及讽刺辱骂分享者的行为,轻者扣分警告,重者直接永久封禁。发帖前请详读:点击进入 。以免永久封禁。
 懒得打字?点击快捷回复➔➔ 
您需要登录后才可以回帖 登录 | 我要注册

本版积分规则

小黑屋|手机版|慢慢游社区 ( 站务处理service@mmyfilm.com )

GMT+8, 2021-8-2 18:11 , Processed in 0.252753 second(s), 31 queries .

Powered by Discuz! X3.4

© 2001-2013 Comsenz Inc.

快速回复 返回顶部 返回列表