慢慢游社区

 找回密码
 我要注册
搜索
查看: 285|回复: 19

[已封装] (百度)爱情与谎言.Welcher.Mann.sagt.schon.die.Wahrheit.2001.x264.ac3.辽艺-zs.mkv

[复制链接]

签到天数: 350 天

[LV.8]以坛为家I

137

主题

1545

帖子

4万

积分

Rank: 64Rank: 64Rank: 64Rank: 64Rank: 64Rank: 64Rank: 64Rank: 64Rank: 64Rank: 64Rank: 64Rank: 64Rank: 64Rank: 64Rank: 64Rank: 64

阅读权限
150
游币
13124
精品值
12150
热心值
0
分享值
81
在线时间
1006 小时
注册时间
2014-12-30
最后登录
2021-4-20

活跃会员热心会员突出贡献

发表于 2021-4-6 17:36:55 | 显示全部楼层 |阅读模式
本帖最后由 zhengyang 于 2021-4-6 17:46 编辑

回老家待了两个月时间,离开时,将坏掉的旧电脑硬盘拆了下来废物利用,竟然保存了一些冷僻的辽艺老电影,原碟已经不知去向,应该是被别人借走没有归还,反正那时候的vcd dvd之类的已经什么都没有了,想想还有点可惜,保存的都是压制的,陆续发出来仅供爱好者借鉴!

慢慢游社区mmy.la_Screenshot (1).png

导演: Donald Kraemer
编剧: Wiebke Lorenz
主演: Anne-Marie Bubke / Oliver Bootz / Tanja Schumann
制片国家/地区: 德国
语言: 德语
IMDb链接: tt0295751

没有看过,也没有找到介绍,貌似网络上有流媒体,不知道效果和这个有没有区别,反正视频不咋地,音轨还能将就!

慢慢游社区mmy.la_爱情与谎言.Welcher.Mann.sagt.schon.die.Wahrheit.2001.x264.ac3.辽艺-zs.mkv_202104.jpg

慢慢游社区mmy.la_爱情与谎言.Welcher.Mann.sagt.schon.die.Wahrheit.2001.x264.ac3.辽艺-zs.mkv_202104.jpg

慢慢游社区mmy.la_爱情与谎言.Welcher.Mann.sagt.schon.die.Wahrheit.2001.x264.ac3.辽艺-zs.mkv_202104.jpg

慢慢游社区mmy.la_爱情与谎言.Welcher.Mann.sagt.schon.die.Wahrheit.2001.x264.ac3.辽艺-zs.mkv_202104.jpg

慢慢游社区mmy.la_爱情与谎言.Welcher.Mann.sagt.schon.die.Wahrheit.2001.x264.ac3.辽艺-zs.mkv_202104.jpg

慢慢游社区mmy.la_爱情与谎言.Welcher.Mann.sagt.schon.die.Wahrheit.2001.x264.ac3.辽艺-zs.mkv_202104.jpg


General
Unique ID                      : 176709785493891402941169472999523280187 (0x84F1111589B736F98962C73BD46EE53B)
Complete name                  :爱情与谎言.Welcher.Mann.sagt.schon.die.Wahrheit.2001.x264.ac3.辽艺-zs.mkv
Format                         : Matroska
Format version                 : Version 4 / Version 2
File size                      : 1.14 GiB
Duration                       : 1h 27mn
Overall bit rate               : 1 867 Kbps
Encoded date                   : UTC 2021-03-22 13:43:27
Writing application            : mkvmerge v7.3.0 ('Nouages') 32bit built on Oct 22 2014 18:44:01
Writing library                : libebml v1.3.0 + libmatroska v1.4.1

Video
ID                             : 1
Format                         : AVC
Format/Info                    : Advanced Video Codec
Format profile                 : Main@L3.1
Format settings, CABAC         : No
Format settings, ReFrames      : 1 frame
Codec ID                       : V_MPEG4/ISO/AVC
Duration                       : 1h 27mn
Bit rate                       : 1 545 Kbps
Width                          : 952 pixels
Height                         : 580 pixels
Display aspect ratio           : 16:10
Frame rate mode                : Variable
Frame rate                     : 26.014 fps
Original frame rate            : 30.000 fps
Color space                    : YUV
Chroma subsampling             : 4:2:0
Bit depth                      : 8 bits
Scan type                      : Progressive
Bits/(Pixel*Frame)             : 0.108
Stream size                    : 967 MiB (83%)
Default                        : Yes
Forced                         : No

Audio
ID                             : 2
Format                         : MPEG Audio
Format version                 : Version 1
Format profile                 : Layer 2
Codec ID                       : A_MPEG/L2
Codec ID/Hint                  : MP2
Duration                       : 1h 27mn
Bit rate mode                  : Constant
Bit rate                       : 320 Kbps
Channel(s)                     : 2 channels
Sampling rate                  : 48.0 KHz
Frame rate                     : 41.667 fps (1152 spf)
Compression mode               : Lossy
Delay relative to video        : 9ms
Stream size                    : 200 MiB (17%)
Title                          : 辽艺
Language                       : Chinese
Default                        : Yes
Forced                         : No


链接: >>点击进入百度云下载<<(←购买前请先验证分享链接是否有效)

游客,需要您回复成为VIP才能查看隐藏内容

评分

参与人数 3游币 +50 精品值 +15 分享值 +3 收起 理由
admin + 50 + 15 + 1
马儿快点跑 + 1
星空凤凰 + 1

查看全部评分

楼主精华帖
回复

使用道具 举报

签到天数: 1176 天

[LV.10]以坛为家III

10

主题

2964

帖子

9731

积分

Rank: 16Rank: 16Rank: 16Rank: 16

阅读权限
70
游币
5947
精品值
143
热心值
0
分享值
1
在线时间
532 小时
注册时间
2017-10-1
最后登录
2021-4-19
发表于 2021-4-6 18:55:26 | 显示全部楼层
楼主发贴辛苦了,谢谢楼主的精彩分享!我觉得慢慢游是注册对了!
回复 支持 反对

使用道具 举报

签到天数: 71 天

[LV.6]常住居民II

0

主题

129

帖子

343

积分

Rank: 4

阅读权限
30
游币
158
精品值
0
热心值
0
分享值
0
在线时间
56 小时
注册时间
2021-1-28
最后登录
2021-4-19
发表于 2021-4-6 18:58:37 | 显示全部楼层
感谢LZ分享好电影。
回复 支持 反对

使用道具 举报

签到天数: 1605 天

[LV.Master]伴坛终老

94

主题

4989

帖子

1万

积分

Rank: 32Rank: 32Rank: 32Rank: 32Rank: 32Rank: 32Rank: 32Rank: 32

阅读权限
90
游币
1403
精品值
508
热心值
4
分享值
31
在线时间
2818 小时
注册时间
2015-4-14
最后登录
2021-4-20
发表于 2021-4-6 19:08:15 | 显示全部楼层
楼主如此诚意的分享如此精彩的内容,必须赞!我想我是一天也不能离开慢慢游。
回复 支持 反对

使用道具 举报

签到天数: 1674 天

[LV.Master]伴坛终老

0

主题

3609

帖子

1万

积分

Rank: 32Rank: 32Rank: 32Rank: 32Rank: 32Rank: 32Rank: 32Rank: 32

阅读权限
90
游币
8482
精品值
115
热心值
0
分享值
0
在线时间
2294 小时
注册时间
2016-2-9
最后登录
2021-4-20

活跃会员

发表于 2021-4-6 19:11:24 | 显示全部楼层
楼主发贴辛苦了,谢谢楼主的精彩分享!我觉得慢慢游是注册对了!
回复 支持 反对

使用道具 举报

签到天数: 2195 天

[LV.Master]伴坛终老

0

主题

5701

帖子

2万

积分

Rank: 32Rank: 32Rank: 32Rank: 32Rank: 32Rank: 32Rank: 32Rank: 32

阅读权限
90
游币
13427
精品值
0
热心值
0
分享值
0
在线时间
1689 小时
注册时间
2015-1-16
最后登录
2021-4-20
发表于 2021-4-6 19:13:31 | 显示全部楼层
楼主发贴辛苦了,谢谢楼主的精彩分享!我觉得慢慢游是注册对了!
回复 支持 反对

使用道具 举报

签到天数: 1554 天

[LV.Master]伴坛终老

0

主题

3277

帖子

4089

积分

Rank: 16Rank: 16Rank: 16Rank: 16

阅读权限
70
游币
16
精品值
0
热心值
0
分享值
0
在线时间
796 小时
注册时间
2016-10-1
最后登录
2021-4-20
发表于 2021-4-6 19:14:45 | 显示全部楼层
其实我一直觉得楼主是资源大神!慢慢游有你们更精彩!
回复 支持 反对

使用道具 举报

签到天数: 241 天

[LV.8]以坛为家I

1

主题

451

帖子

1491

积分

Rank: 8Rank: 8

阅读权限
50
游币
915
精品值
10
热心值
0
分享值
0
在线时间
105 小时
注册时间
2019-8-21
最后登录
2021-4-19
发表于 2021-4-6 19:31:14 | 显示全部楼层
谢谢分享                           
回复 支持 反对

使用道具 举报

签到天数: 1982 天

[LV.Master]伴坛终老

2

主题

4851

帖子

6766

积分

Rank: 16Rank: 16Rank: 16Rank: 16

阅读权限
70
游币
488
精品值
0
热心值
0
分享值
0
在线时间
1427 小时
注册时间
2013-7-28
最后登录
2021-4-20
发表于 2021-4-6 19:40:57 | 显示全部楼层
楼主发贴辛苦了,谢谢楼主的精彩分享!我觉得慢慢游是注册对了!
回复 支持 反对

使用道具 举报

签到天数: 541 天

[LV.9]以坛为家II

464

主题

3607

帖子

26万

积分

Rank: 64Rank: 64Rank: 64Rank: 64Rank: 64Rank: 64Rank: 64Rank: 64Rank: 64Rank: 64Rank: 64Rank: 64Rank: 64Rank: 64Rank: 64Rank: 64

阅读权限
110
游币
244002
精品值
5538
热心值
0
分享值
2264
在线时间
1276 小时
注册时间
2018-7-17
最后登录
2021-4-20

活跃会员热心会员突出贡献分享达人

发表于 2021-4-6 19:50:14 | 显示全部楼层
这东西我收了!谢谢楼主!有慢慢游真好!
回复 支持 反对

使用道具 举报

回帖须知
本站严禁灌水回复以及讽刺辱骂分享者的行为,轻者扣分警告,重者直接永久封禁。发帖前请详读:点击进入 。以免永久封禁。
 懒得打字?点击快捷回复➔➔ 
您需要登录后才可以回帖 登录 | 我要注册

本版积分规则

小黑屋|手机版|慢慢游社区 ( 站务处理service@mmyfilm.com )

GMT+8, 2021-4-20 17:53 , Processed in 0.304164 second(s), 30 queries .

Powered by Discuz! X3.4

© 2001-2013 Comsenz Inc.

快速回复 返回顶部 返回列表