慢慢游社区

 找回密码
 我要注册
搜索
查看: 352|回复: 22

[已封装] 爱情香水.Der.Duft.des.Geldes.2002.x264.ac3.辽艺-zs.mkv

[复制链接]

签到天数: 350 天

[LV.8]以坛为家I

137

主题

1545

帖子

4万

积分

Rank: 64Rank: 64Rank: 64Rank: 64Rank: 64Rank: 64Rank: 64Rank: 64Rank: 64Rank: 64Rank: 64Rank: 64Rank: 64Rank: 64Rank: 64Rank: 64

阅读权限
150
游币
13124
精品值
12150
热心值
0
分享值
81
在线时间
1006 小时
注册时间
2014-12-30
最后登录
2021-4-20

活跃会员热心会员突出贡献

发表于 2021-4-1 17:06:06 | 显示全部楼层 |阅读模式
回老家待了两个月时间,离开时,将坏掉的旧电脑硬盘拆了下来废物利用,竟然保存了一些冷僻的辽艺老电影,原碟已经不知去向,应该是被别人借走没有归还,反正那时候的vcd dvd之类的已经什么都没有了,想想还有点可惜,保存的都是压制的,陆续发出来仅供爱好者借鉴!

慢慢游社区mmy.la_Screenshot (1).png

爱情香水.Der.Duft.des.Geldes.2002.x264.ac3.辽艺-zs
导演: Karl Kases
主演: 瓦莱丽·涅豪斯 / 米基·哈特 / Heiner Radau / Bernd Herzsprung / 玛丽拉·阿伦斯 / 更多...
类型: 剧情
制片国家/地区: 德国
语言: 德语
上映日期: 2002-09-30(德国)
片长: 93分钟
又名: 爱之香气
IMDb链接: tt0340085
爱情香水的剧情简介 · · · · · ·
  亚历山大(米基·哈特 Mickey Hardt 饰)的父亲经营着一家香水公司,亚历山大拥有与生俱来的灵敏嗅觉,对香味非常的敏感,因此在事业上给与了父亲许多的帮助。一次偶然中,亚历山大邂逅了名为托尼(瓦莱丽·涅豪斯 Valerie Niehaus 饰)的美丽单亲妈妈,并且震惊的发现托尼的儿子雅诺士拥有着异于常人的嗅觉。
  亚历山大想要培养雅诺士,帮助他成为一名调香师,但是托尼却拒绝了他。然而亚历山大并没有放弃,雅诺士自己也很愿意涉足香水这一行业。随着时间的推移,托尼发现自己渐渐爱上了亚历山大,而亚历山大和雅诺士共同研制出来的爱情香水也诞生了。
慢慢游社区mmy.la_爱情香水.Der.Duft.des.Geldes.2002.x264.ac3.辽艺-zs.mkv_20210401_164918.509.jpg

慢慢游社区mmy.la_爱情香水.Der.Duft.des.Geldes.2002.x264.ac3.辽艺-zs.mkv_20210401_165141.842.jpg

慢慢游社区mmy.la_爱情香水.Der.Duft.des.Geldes.2002.x264.ac3.辽艺-zs.mkv_20210401_165210.983.jpg

慢慢游社区mmy.la_爱情香水.Der.Duft.des.Geldes.2002.x264.ac3.辽艺-zs.mkv_20210401_165229.470.jpg

慢慢游社区mmy.la_爱情香水.Der.Duft.des.Geldes.2002.x264.ac3.辽艺-zs.mkv_20210401_165244.586.jpg

慢慢游社区mmy.la_爱情香水.Der.Duft.des.Geldes.2002.x264.ac3.辽艺-zs.mkv_20210401_165253.509.jpg

慢慢游社区mmy.la_爱情香水.Der.Duft.des.Geldes.2002.x264.ac3.辽艺-zs.mkv_20210401_165305.334.jpg

慢慢游社区mmy.la_爱情香水.Der.Duft.des.Geldes.2002.x264.ac3.辽艺-zs.mkv_20210401_165316.363.jpg

General
Unique ID                      : 202481878611250531806097697895702978474(0x98549760D57E01EC9CC37E042D65DFAA)
Complete name                  : H:\爱情香水.Der.Duft.des.Geldes.2002.x264.ac3.辽艺-zs.mkv
Format                         : Matroska
Format version                 : Version 4 / Version 2
File size                      : 1.21 GiB
Duration                       : 1h 32mn
Overall bit rate               : 1 871 Kbps
Encoded date                   : UTC 2021-03-22 13:36:47
Writing application            : mkvmerge v7.3.0 ('Nouages') 32bit built on Oct 22 2014 18:44:01
Writing library                : libebml v1.3.0 + libmatroska v1.4.1

Video
ID                             : 1
Format                         : AVC
Format/Info                    : Advanced Video Codec
Format profile                 : Main@L3.1
Format settings, CABAC         : No
Format settings, ReFrames      : 1 frame
Codec ID                       : V_MPEG4/ISO/AVC
Duration                       : 1h 32mn
Bit rate                       : 1 549 Kbps
Width                          : 960 pixels
Height                         : 576 pixels
Display aspect ratio           : 5:3
Frame rate mode                : Variable
Frame rate                     : 29.970 (29970/1000) fps
Original frame rate            : 30.000 fps
Color space                    : YUV
Chroma subsampling             : 4:2:0
Bit depth                      : 8 bits
Scan type                      : Progressive
Bits/(Pixel*Frame)             : 0.093
Stream size                    : 1.00 GiB (83%)
Default                        : Yes
Forced                         : No

Audio
ID                             : 2
Format                         : MPEG Audio
Format version                 : Version 1
Format profile                 : Layer 2
Codec ID                       : A_MPEG/L2
Codec ID/Hint                  : MP2
Duration                       : 1h 32mn
Bit rate mode                  : Constant
Bit rate                       : 320 Kbps
Channel(s)                     : 2 channels
Sampling rate                  : 48.0 KHz
Frame rate                     : 41.667 fps (1152 spf)
Compression mode               : Lossy
Stream size                    : 212 MiB (17%)
Title                          : 辽艺
Language                       : Chinese
Default                        : Yes
Forced                         : No


链接:>>点击进入百度云下载<<(←购买前请先验证分享链接是否有效)
游客,需要您回复成为VIP才能查看隐藏内容



评分

参与人数 5游币 +80 精品值 +20 分享值 +5 收起 理由
admin + 50 + 20 + 1 神马都是浮云,资源才是硬道理!.
asdasd + 1
古藤书斋 + 1
jdbzbzrwrlwsc + 1
马儿快点跑 + 30 + 1

查看全部评分

楼主精华帖
回复

使用道具 举报

签到天数: 127 天

[LV.7]常住居民III

9

主题

531

帖子

1586

积分

Rank: 8Rank: 8

阅读权限
50
游币
225
精品值
30
热心值
0
分享值
5
在线时间
760 小时
注册时间
2016-4-17
最后登录
2021-4-20
发表于 2021-4-1 18:35:59 | 显示全部楼层
腾讯视频也有这个
回复 支持 反对

使用道具 举报

签到天数: 1606 天

[LV.Master]伴坛终老

94

主题

4990

帖子

1万

积分

Rank: 32Rank: 32Rank: 32Rank: 32Rank: 32Rank: 32Rank: 32Rank: 32

阅读权限
90
游币
1405
精品值
508
热心值
4
分享值
31
在线时间
2818 小时
注册时间
2015-4-14
最后登录
2021-4-20
发表于 2021-4-1 18:53:34 | 显示全部楼层
楼主如此诚意的分享如此精彩的内容,必须赞!我想我是一天也不能离开慢慢游。
回复 支持 反对

使用道具 举报

签到天数: 1555 天

[LV.Master]伴坛终老

0

主题

3279

帖子

4095

积分

Rank: 16Rank: 16Rank: 16Rank: 16

阅读权限
70
游币
20
精品值
0
热心值
0
分享值
0
在线时间
796 小时
注册时间
2016-10-1
最后登录
2021-4-20
发表于 2021-4-1 19:13:41 | 显示全部楼层
楼主如此诚意的分享如此精彩的内容,必须赞!我想我是一天也不能离开慢慢游。
回复 支持 反对

使用道具 举报

签到天数: 1157 天

[LV.10]以坛为家III

3

主题

2418

帖子

6261

积分

Rank: 16Rank: 16Rank: 16Rank: 16

阅读权限
70
游币
2359
精品值
44
热心值
2
分享值
0
在线时间
1392 小时
注册时间
2018-1-14
最后登录
2021-4-20

热心会员

发表于 2021-4-1 19:43:55 | 显示全部楼层
这东西我收了!谢谢楼主!有慢慢游真好!
回复 支持 反对

使用道具 举报

签到天数: 1982 天

[LV.Master]伴坛终老

2

主题

4851

帖子

6766

积分

Rank: 16Rank: 16Rank: 16Rank: 16

阅读权限
70
游币
488
精品值
0
热心值
0
分享值
0
在线时间
1427 小时
注册时间
2013-7-28
最后登录
2021-4-20
发表于 2021-4-1 19:53:59 | 显示全部楼层
楼主发贴辛苦了,谢谢楼主的精彩分享!我觉得慢慢游是注册对了!
回复 支持 反对

使用道具 举报

签到天数: 186 天

[LV.7]常住居民III

283

主题

4048

帖子

9634

积分

Rank: 16Rank: 16Rank: 16Rank: 16

阅读权限
70
游币
3917
精品值
101
热心值
0
分享值
12
在线时间
1443 小时
注册时间
2017-2-20
最后登录
2021-4-20

热心会员灌水之王

发表于 2021-4-1 20:02:53 | 显示全部楼层
这东西我收了!谢谢楼主!有慢慢游真好!
回复 支持 反对

使用道具 举报

签到天数: 1864 天

[LV.Master]伴坛终老

87

主题

3462

帖子

2万

积分

Rank: 32Rank: 32Rank: 32Rank: 32Rank: 32Rank: 32Rank: 32Rank: 32

阅读权限
90
游币
21287
精品值
406
热心值
0
分享值
13
在线时间
1141 小时
注册时间
2013-7-29
最后登录
2021-4-19

活跃会员

发表于 2021-4-1 20:26:19 | 显示全部楼层
楼主发贴辛苦了,谢谢楼主的精彩分享!我觉得慢慢游是注册对了!
回复 支持 反对

使用道具 举报

签到天数: 188 天

[LV.7]常住居民III

36

主题

1103

帖子

8798

积分

Rank: 16Rank: 16Rank: 16Rank: 16

阅读权限
70
游币
3150
精品值
1809
热心值
0
分享值
153
在线时间
621 小时
注册时间
2020-10-3
最后登录
2021-4-20

最佳新人

发表于 2021-4-1 20:35:21 | 显示全部楼层
既然你诚信诚意的推荐了,那我就满怀欣喜的看看!
回复 支持 反对

使用道具 举报

签到天数: 55 天

[LV.5]常住居民I

0

主题

177

帖子

4356

积分

Rank: 16Rank: 16Rank: 16Rank: 16

阅读权限
70
游币
3860
精品值
25
热心值
0
分享值
0
在线时间
269 小时
注册时间
2019-3-1
最后登录
2021-4-19
发表于 2021-4-1 21:52:59 | 显示全部楼层
经典好片好好好
回复 支持 反对

使用道具 举报

回帖须知
本站严禁灌水回复以及讽刺辱骂分享者的行为,轻者扣分警告,重者直接永久封禁。发帖前请详读:点击进入 。以免永久封禁。
 懒得打字?点击快捷回复➔➔ 
您需要登录后才可以回帖 登录 | 我要注册

本版积分规则

小黑屋|手机版|慢慢游社区 ( 站务处理service@mmyfilm.com )

GMT+8, 2021-4-20 19:33 , Processed in 0.276906 second(s), 30 queries .

Powered by Discuz! X3.4

© 2001-2013 Comsenz Inc.

快速回复 返回顶部 返回列表