慢慢游社区

 找回密码
 我要注册
搜索
查看: 452|回复: 28

[已封装] 爱的重生(爱情宣言) Noch.einmal.lieben.2005.x264.ac3.辽艺-zs

[复制链接]

签到天数: 350 天

[LV.8]以坛为家I

137

主题

1545

帖子

4万

积分

Rank: 64Rank: 64Rank: 64Rank: 64Rank: 64Rank: 64Rank: 64Rank: 64Rank: 64Rank: 64Rank: 64Rank: 64Rank: 64Rank: 64Rank: 64Rank: 64

阅读权限
150
游币
13124
精品值
12150
热心值
0
分享值
81
在线时间
1006 小时
注册时间
2014-12-30
最后登录
2021-4-20

活跃会员热心会员突出贡献

发表于 2021-3-31 16:30:56 | 显示全部楼层 |阅读模式
本帖最后由 zhengyang 于 2021-3-31 16:35 编辑

回老家待了两个月时间,离开时,将坏掉的旧电脑硬盘拆了下来废物利用,竟然保存了一些冷僻的辽艺老电影,原碟已经不知去向,应该是被别人借走没有归还,反正那时候的vcd dvd之类的已经什么都没有了,想想还有点可惜,保存的都是压制的,陆续发出来仅供爱好者借鉴!

慢慢游社区mmy.la_Screenshot (1).png

爱的重生 Noch einmal lieben (2005)
导演: Anna Justice
编剧: Andrea Sixt
主演: Marie Zielcke
制片国家/地区: 德国
语言: 德语
上映日期: 2005
片长: 89分钟
又名: loveing again
IMDb链接: tt046169
爱的重生的剧情简介 · · · · · ·
  30岁的安德烈是一个时装设计师,只要有人需要她的帮助她都不能拒绝,.无论是不停要求她的父母还是常常让她工作到深夜的老板。她总是试图帮助其他人解决他们的问题,安德烈发现她留给自己的时间很少。直到有一天,她被诊断出乳腺癌……

慢慢游社区mmy.la_爱的重生(爱情宣言) Noch.einmal.lieben.2005.x264.ac3.辽艺-zs.mkv_20210331_16051.jpg

慢慢游社区mmy.la_爱的重生(爱情宣言) Noch.einmal.lieben.2005.x264.ac3.辽艺-zs.mkv_20210331_16054.jpg

慢慢游社区mmy.la_爱的重生(爱情宣言) Noch.einmal.lieben.2005.x264.ac3.辽艺-zs.mkv_20210331_16063.jpg

慢慢游社区mmy.la_爱的重生(爱情宣言) Noch.einmal.lieben.2005.x264.ac3.辽艺-zs.mkv_20210331_16065.jpg

慢慢游社区mmy.la_爱的重生(爱情宣言) Noch.einmal.lieben.2005.x264.ac3.辽艺-zs.mkv_20210331_16072.jpg

慢慢游社区mmy.la_爱的重生(爱情宣言) Noch.einmal.lieben.2005.x264.ac3.辽艺-zs.mkv_20210331_16074.jpg
General
Unique ID                      : 235551393125991212728681388828156051704 (0xB1358C5351AC7196A1F15AB9980940F8)
Complete name                  : H:\爱的重生(爱情宣言) Noch.einmal.lieben.2005.x264.ac3.辽艺-zs.mkv
Format                         : Matroska
Format version                 : Version 4 / Version 2
File size                      : 1.48 GiB
Duration                       : 1h 29mn
Overall bit rate               : 2 356 Kbps
Encoded date                   : UTC 2021-03-12 01:39:21
Writing application            : mkvmerge v7.3.0 ('Nouages') 32bit built on Oct 22 2014 18:44:01
Writing library                : libebml v1.3.0 + libmatroska v1.4.1


Video
ID                             : 1
Format                         : AVC
Format/Info                    : Advanced Video Codec
Format profile                 : Main@L3.1
Format settings, CABAC         : No
Format settings, ReFrames      : 1 frame
Codec ID                       : V_MPEG4/ISO/AVC
Duration                       : 1h 29mn
Bit rate                       : 2 034 Kbps
Width                          : 960 pixels
Height                         : 584 pixels
Display aspect ratio           : 16:10
Frame rate mode                : Variable
Frame rate                     : 29.530 fps
Original frame rate            : 30.000 fps
Color space                    : YUV
Chroma subsampling             : 4:2:0
Bit depth                      : 8 bits
Scan type                      : Progressive
Bits/(Pixel*Frame)             : 0.123
Stream size                    : 1.27 GiB (86%)
Default                        : Yes
Forced                         : No


Audio
ID                             : 2
Format                         : MPEG Audio
Format version                 : Version 1
Format profile                 : Layer 2
Codec ID                       : A_MPEG/L2
Codec ID/Hint                  : MP2
Duration                       : 1h 29mn
Bit rate mode                  : Constant
Bit rate                       : 320 Kbps
Channel(s)                     : 2 channels
Sampling rate                  : 48.0 KHz
Frame rate                     : 41.667 fps (1152 spf)
Compression mode               : Lossy
Stream size                    : 205 MiB (14%)
Title                          : 辽艺
Language                       : Chinese
Default                        : Yes
Forced                         : No


下载地址:链接:>>点击进入百度云下载<<(←购买前请先验证分享链接是否有效)
游客,需要您回复成为VIP才能查看隐藏内容



评分

参与人数 9游币 +80 精品值 +15 分享值 +9 收起 理由
admin + 50 + 15 + 1 慢慢游有你更精彩!
马儿快点跑 + 30 + 1
asdasd + 1
zfrzfr + 1
古藤书斋 + 1
jdbzbzrwrlwsc + 1
逍遥御 + 1 慢慢游有你更精彩!
thisisanfield + 1
bobystrong + 1

查看全部评分

楼主精华帖
回复

使用道具 举报

签到天数: 215 天

[LV.7]常住居民III

1

主题

742

帖子

4303

积分

Rank: 16Rank: 16Rank: 16Rank: 16

阅读权限
70
游币
2862
精品值
187
热心值
0
分享值
0
在线时间
325 小时
注册时间
2020-9-8
最后登录
2021-4-20
发表于 2021-3-31 16:39:14 | 显示全部楼层
感谢楼主的无私分享!要想慢慢游好 就靠你我他
回复 支持 反对

使用道具 举报

签到天数: 468 天

[LV.9]以坛为家II

16

主题

2051

帖子

4372

积分

Rank: 16Rank: 16Rank: 16Rank: 16

阅读权限
70
游币
2160
精品值
0
热心值
0
分享值
8
在线时间
145 小时
注册时间
2019-7-21
最后登录
2021-4-19

活跃会员热心会员

发表于 2021-3-31 16:49:03 | 显示全部楼层
楼主发贴辛苦了,谢谢楼主的精彩分享!我觉得慢慢游是注册对了!
回复 支持 反对

使用道具 举报

签到天数: 70 天

[LV.6]常住居民II

0

主题

234

帖子

349

积分

Rank: 4

阅读权限
30
游币
53
精品值
0
热心值
0
分享值
0
在线时间
62 小时
注册时间
2017-1-30
最后登录
2021-4-18
发表于 2021-3-31 16:51:15 | 显示全部楼层

感谢楼主的无私分享!要想慢慢游好 就靠你我他
回复 支持 反对

使用道具 举报

签到天数: 212 天

[LV.7]常住居民III

15

主题

278

帖子

5612

积分

Rank: 16Rank: 16Rank: 16Rank: 16

阅读权限
70
游币
5189
精品值
0
热心值
0
分享值
19
在线时间
107 小时
注册时间
2020-6-21
最后登录
2021-4-20
发表于 2021-3-31 17:26:54 | 显示全部楼层
0                                      
回复 支持 反对

使用道具 举报

签到天数: 188 天

[LV.7]常住居民III

36

主题

1103

帖子

8798

积分

Rank: 16Rank: 16Rank: 16Rank: 16

阅读权限
70
游币
3150
精品值
1809
热心值
0
分享值
153
在线时间
621 小时
注册时间
2020-10-3
最后登录
2021-4-20

最佳新人

发表于 2021-3-31 18:12:26 | 显示全部楼层
资源极好,谢谢!
回复 支持 反对

使用道具 举报

签到天数: 1157 天

[LV.10]以坛为家III

3

主题

2418

帖子

6261

积分

Rank: 16Rank: 16Rank: 16Rank: 16

阅读权限
70
游币
2359
精品值
44
热心值
2
分享值
0
在线时间
1392 小时
注册时间
2018-1-14
最后登录
2021-4-20

热心会员

发表于 2021-3-31 18:16:25 | 显示全部楼层
楼主太厉害了!这个资源都能找到,辛苦了!我觉得慢慢游真是个好地方!
回复 支持 反对

使用道具 举报

签到天数: 1605 天

[LV.Master]伴坛终老

94

主题

4989

帖子

1万

积分

Rank: 32Rank: 32Rank: 32Rank: 32Rank: 32Rank: 32Rank: 32Rank: 32

阅读权限
90
游币
1403
精品值
508
热心值
4
分享值
31
在线时间
2818 小时
注册时间
2015-4-14
最后登录
2021-4-20
发表于 2021-3-31 18:30:28 | 显示全部楼层
楼主如此诚意的分享如此精彩的内容,必须赞!我想我是一天也不能离开慢慢游。
回复 支持 反对

使用道具 举报

签到天数: 7 天

[LV.3]偶尔看看II

0

主题

62

帖子

8591

积分

Rank: 16Rank: 16Rank: 16Rank: 16

阅读权限
70
游币
8481
精品值
10
热心值
0
分享值
0
在线时间
29 小时
注册时间
2020-12-19
最后登录
2021-4-20
发表于 2021-3-31 18:44:17 | 显示全部楼层
楼主发个资源链接呗
回复 支持 反对

使用道具 举报

签到天数: 552 天

[LV.9]以坛为家II

3

主题

898

帖子

3829

积分

Rank: 8Rank: 8

阅读权限
50
游币
2505
精品值
96
热心值
0
分享值
0
在线时间
234 小时
注册时间
2019-8-1
最后登录
2021-4-20
发表于 2021-3-31 19:47:25 | 显示全部楼层
楼主发贴辛苦了,谢谢楼主的精彩分享!我觉得慢慢游是注册对了!
回复 支持 反对

使用道具 举报

回帖须知
本站严禁灌水回复以及讽刺辱骂分享者的行为,轻者扣分警告,重者直接永久封禁。发帖前请详读:点击进入 。以免永久封禁。
 懒得打字?点击快捷回复➔➔ 
您需要登录后才可以回帖 登录 | 我要注册

本版积分规则

小黑屋|手机版|慢慢游社区 ( 站务处理service@mmyfilm.com )

GMT+8, 2021-4-20 17:39 , Processed in 0.327014 second(s), 30 queries .

Powered by Discuz! X3.4

© 2001-2013 Comsenz Inc.

快速回复 返回顶部 返回列表