慢慢游社区

 找回密码
 我要注册
搜索
查看: 489|回复: 9

[已封装] 精制修复超清版《假如爱有天意》2003/The Classic/国韩双语/国语精校软字幕/5.86G.MKV

[复制链接]

签到天数: 183 天

[LV.7]常住居民III

25

主题

471

帖子

2万

积分

Rank: 32Rank: 32Rank: 32Rank: 32Rank: 32Rank: 32Rank: 32Rank: 32

阅读权限
90
游币
22604
精品值
698
热心值
0
分享值
48
在线时间
358 小时
注册时间
2018-9-29
最后登录
2021-4-20
发表于 2021-3-25 13:03:42 | 显示全部楼层 |阅读模式
本帖最后由 liutianok 于 2021-4-15 06:59 编辑

假如爱有天意

慢慢游社区mmy.la_1.JPG

编剧: 郭在容
主演: 孙艺珍 / 曹承佑 / 赵寅成 / 李己雨 / 金秉玉
类型: 剧情 / 爱情
制片国家/地区: 韩国
语言: 韩语/国语
上映日期: 2003-01-30
片长: 02:10:33 分钟
又名: 缘起不灭/ 不可不信缘 / 当爱经过时/ The Classic
IMDb链接: tt0348568

简介:
       2003年的大学生梓希(孙艺珍饰)一天收拾房间,无意中发现一个神秘的箱子,里面满载着母亲珠喜(孙艺珍饰)留下的情书,在阅读中她重温着母亲的初恋回忆。1968年的珠喜,是一个清纯可爱的少女,与穷学生俊河(曹承佑饰)一见钟情,由于珠喜显赫的家世,令两人的恋爱陷入俗套的门不当户不对的痛苦纠结中。2003年的梓希爱情同样坎坷,她暗恋着戏剧学会的尚民(赵寅成饰),却一直难以表白自己的爱意。而巧妙的是,梓希发觉母亲的初恋故事跟她自己遭遇十分相似。自己能得到幸福吗?还是如母亲一般曲折难求?

慢慢游社区mmy.la_2.JPG 慢慢游社区mmy.la_3.JPG 慢慢游社区mmy.la_6.JPG 慢慢游社区mmy.la_10.JPG 慢慢游社区mmy.la_7.JPG 慢慢游社区mmy.la_8.JPG 慢慢游社区mmy.la_4.JPG 慢慢游社区mmy.la_15.JPG 慢慢游社区mmy.la_14.JPG 慢慢游社区mmy.la_13.JPG 慢慢游社区mmy.la_11.JPG 慢慢游社区mmy.la_19.JPG 慢慢游社区mmy.la_18.JPG 慢慢游社区mmy.la_17.JPG 慢慢游社区mmy.la_16.JPG 慢慢游社区mmy.la_22.JPG 慢慢游社区mmy.la_23.JPG 慢慢游社区mmy.la_24.JPG 慢慢游社区mmy.la_26.JPG

文件简息:
Bits/(Pixel*Frame)             : 0.080
Stream size                    : 5.45 GiB (93%)
Writing library                : x265 3.4+12-geff904199:[Windows][GCC 5.4.0][64 bit] 10bit

Default                        : Yes
Forced                         : No
Color range                    : Limited

Audio #1
ID                             : 2
Format                         : MPEG Audio
Format version                 : Version 1
Format profile                 : Layer 3
Format settings                : Joint stereo
Codec ID                       : A_MPEG/L3
Codec ID/Hint                  : MP3
Duration                       : 2 h 10 min
Bit rate mode                  : Constant
Bit rate                       : 320 kb/s
Channel(s)                     : 2 channels
Sampling rate                  : 48.0 kHz
Frame rate                     : 41.667 FPS (1152 SPF)
Compression mode               : Lossy
Stream size                    : 299 MiB (5%)
Title                          : 国语
Language                       : Chinese
Default                        : Yes
Forced                         : No

Audio #2
ID                             : 3
Format                         : AC-3
Format/Info                    : Audio Coding 3
Commercial name                : Dolby Digital
Codec ID                       : A_AC3
Duration                       : 2 h 10 min
Bit rate mode                  : Constant
Bit rate                       : 128 kb/s
Channel(s)                     : 2 channels
Channel layout                 : L R
Sampling rate                  : 48.0 kHz
Frame rate                     : 31.250 FPS (1536 SPF)
Compression mode               : Lossy
Stream size                    : 120 MiB (2%)
Title                          : 韩语
Language                       : English
Service kind                   : Complete Main
Default                        : No
Forced                         : No

Text
ID                             : 4
Format                         : UTF-8
Codec ID                       : S_TEXT/UTF8
Codec ID/Info                  : UTF-8 Plain Text
Duration                       : 2 h 5 min
Bit rate                       : 22 b/s
Count of elements              : 853
Stream size                    : 20.3 KiB (0%)
Default                        : Yes
Forced                         : No

1.软字幕逐字按国语配音校对录入封装;
2.影片去斑降噪.修复调参重混;
3.比例按IMDb信息2.35重制,源帧率47.95高码率未变动,保证大屏播放时不卡;
4.因喜欢里面的音乐,混为320kb/s,mp3的高品质了,韩语低码,毕竟听的人少;
5.源片采用网络上单身狗怎么了制作的视频,在这里致谢了;
6.因文件超某度上传的限制,只有存于迅雷云分享给大家;
7.片头片尾无用的东东稍有修剪;
8.清晰级达每张截图可以做桌面。
此处内容付费可见

点击下方支付。


评分

参与人数 1游币 +50 精品值 +10 分享值 +1 收起 理由
光影流转 + 50 + 10 + 1 慢慢游有你更精彩!

查看全部评分

楼主精华帖
回复

使用道具 举报

签到天数: 1144 天

[LV.10]以坛为家III

199

主题

2155

帖子

4万

积分

Rank: 64Rank: 64Rank: 64Rank: 64Rank: 64Rank: 64Rank: 64Rank: 64Rank: 64Rank: 64Rank: 64Rank: 64Rank: 64Rank: 64Rank: 64Rank: 64

阅读权限
110
游币
43582
精品值
252
热心值
0
分享值
242
在线时间
660 小时
注册时间
2017-11-23
最后登录
2021-4-20

最佳新人活跃会员热心会员灌水之王

发表于 2021-3-25 13:11:35 | 显示全部楼层
本资源找了很久了,终于在慢慢游找到,感谢您的分享。祝慢慢游越来越好!
回复 支持 反对

使用道具 举报

签到天数: 422 天

[LV.9]以坛为家II

0

主题

4299

帖子

5714

积分

Rank: 16Rank: 16Rank: 16Rank: 16

阅读权限
70
游币
1099
精品值
5
热心值
0
分享值
0
在线时间
306 小时
注册时间
2019-7-4
最后登录
2021-4-20

活跃会员

发表于 2021-3-25 14:22:40 | 显示全部楼层
楼主发贴辛苦了,谢谢楼主的精彩分享!我觉得慢慢游是注册对了!
回复 支持 反对

使用道具 举报

签到天数: 307 天

[LV.8]以坛为家I

4

主题

765

帖子

1663

积分

Rank: 8Rank: 8

阅读权限
50
游币
811
精品值
0
热心值
0
分享值
0
在线时间
87 小时
注册时间
2017-3-1
最后登录
2021-4-20
发表于 2021-3-25 14:54:03 | 显示全部楼层
楼主发贴辛苦了,谢谢楼主的精彩分享!我觉得慢慢游是注册对了!
回复 支持 反对

使用道具 举报

签到天数: 186 天

[LV.7]常住居民III

283

主题

4048

帖子

9634

积分

Rank: 16Rank: 16Rank: 16Rank: 16

阅读权限
70
游币
3917
精品值
101
热心值
0
分享值
12
在线时间
1443 小时
注册时间
2017-2-20
最后登录
2021-4-20

热心会员灌水之王

发表于 2021-3-25 15:14:35 | 显示全部楼层
本资源找了很久了,终于在慢慢游找到,感谢您的分享。祝慢慢游越来越好!
回复 支持 反对

使用道具 举报

签到天数: 57 天

[LV.5]常住居民I

1

主题

76

帖子

6万

积分

Rank: 64Rank: 64Rank: 64Rank: 64Rank: 64Rank: 64Rank: 64Rank: 64Rank: 64Rank: 64Rank: 64Rank: 64Rank: 64Rank: 64Rank: 64Rank: 64

阅读权限
150
游币
59778
精品值
707
热心值
0
分享值
0
在线时间
77 小时
注册时间
2021-1-22
最后登录
2021-4-20
发表于 2021-3-25 15:26:07 | 显示全部楼层
感谢楼主的无私分享!要想慢慢游好 就靠你我他
回复 支持 反对

使用道具 举报

签到天数: 76 天

[LV.6]常住居民II

4

主题

162

帖子

1万

积分

Rank: 32Rank: 32Rank: 32Rank: 32Rank: 32Rank: 32Rank: 32Rank: 32

阅读权限
150
游币
18521
精品值
84
热心值
0
分享值
0
在线时间
380 小时
注册时间
2019-5-24
最后登录
2021-4-20
发表于 2021-3-25 15:55:46 | 显示全部楼层
没有精品值啊,很遗憾啊
回复 支持 反对

使用道具 举报

该用户从未签到

0

主题

13

帖子

14

积分

Rank: 2

阅读权限
10
游币
1
精品值
0
热心值
0
分享值
0
在线时间
0 小时
注册时间
2021-3-28
最后登录
2021-3-28
发表于 2021-3-28 12:28:57 | 显示全部楼层
感谢分享,好资源。
回复 支持 反对

使用道具 举报

签到天数: 1036 天

[LV.10]以坛为家III

1

主题

2932

帖子

3898

积分

Rank: 16Rank: 16Rank: 16Rank: 16

阅读权限
70
游币
100
精品值
30
热心值
0
分享值
0
在线时间
806 小时
注册时间
2013-11-6
最后登录
2021-4-16
发表于 2021-3-30 15:53:51 来自手机 | 显示全部楼层
谢谢楼主的精彩分享!
回复 支持 反对

使用道具 举报

签到天数: 1 天

[LV.1]初来乍到

0

主题

4

帖子

8

积分

Rank: 18Rank: 18Rank: 18Rank: 18Rank: 18

阅读权限
150
游币
4
精品值
0
热心值
0
分享值
0
在线时间
0 小时
注册时间
2021-4-2
最后登录
2021-4-2
发表于 2021-4-2 15:51:07 | 显示全部楼层
经典中的经典,网上资源参差不齐,希望这版本不失望
回复 支持 反对

使用道具 举报

回帖须知
本站严禁灌水回复以及讽刺辱骂分享者的行为,轻者扣分警告,重者直接永久封禁。发帖前请详读:点击进入 。以免永久封禁。
 懒得打字?点击快捷回复➔➔ 
您需要登录后才可以回帖 登录 | 我要注册

本版积分规则

小黑屋|手机版|慢慢游社区 ( 站务处理service@mmyfilm.com )

GMT+8, 2021-4-20 19:08 , Processed in 0.467432 second(s), 32 queries .

Powered by Discuz! X3.4

© 2001-2013 Comsenz Inc.

快速回复 返回顶部 返回列表