慢慢游社区

 找回密码
 我要注册
搜索
查看: 569|回复: 36

[音频组作品] [百度/115盘][恐怖经典][美国][招魂2][The.Conjuring.1.2016.恐怖/惊悚/悬疑/1080p.BluRay.H265.AC3.DD5.1-GYLZ/MKV/2.6GB][国英双语中字]

[复制链接]

签到天数: 1753 天

[LV.Master]伴坛终老

153

主题

2762

帖子

5万

积分

一个一直走在路上寂寞并快乐着的影视工作者

Rank: 64Rank: 64Rank: 64Rank: 64Rank: 64Rank: 64Rank: 64Rank: 64Rank: 64Rank: 64Rank: 64Rank: 64Rank: 64Rank: 64Rank: 64Rank: 64

阅读权限
255
游币
17064
精品值
13959
热心值
3
分享值
483
在线时间
1822 小时
注册时间
2015-10-16
最后登录
2021-4-20

活跃会员热心会员突出贡献正太勋章色狼勋章猥琐勋章大叔勋章音频组专属勋章爱心勋章灌水之王最佳新人子鼠御姐勋章色女勋章纯洁勋章萝莉勋章处女座卯兔射手座

发表于 2021-3-26 15:30:52 | 显示全部楼层 |阅读模式
本帖最后由 光影流转 于 2021-3-27 18:25 编辑
第3届豆瓣电影年度榜单评分最高的恐怖片!

个人观点
见论坛已有好几部《招魂1》的国语资源分享,所以这里就不发布1了。讲真,看温导《招魂》系列要配着《安娜.贝尔》系列看,先看《安娜.贝尔》系列,再看《招魂》系列。即使这样,许多人也未必能看懂二者之间的关联。当然,这类片子就是要让你觉得越看越懵懂...否则,就不觉得魑魅魍魉,妖魔鬼怪神秘叵测了。一句话:惊悚片看的就是个氛围和感觉,建议晚上调暗灯光放大音效一个人静静观看...总之,惊悚恐怖类影片无需过多赘述,废话不说直接上干货!

原声视频及字幕:BTPT
HEVCx26510bit编码压制,(体积小而画质超清的影视资源必定会成为今后网络存储的趋势
台配国语:引用本坛会员“ lydream1117 ”DD2.0-192kbps台配国语 在此致谢!
台配音轨尝试重混DD5.1-256kbps,效果还可以





                                   招魂2 The Conjuring 2 (2016)

慢慢游社区mmy.la_360截图20210317151342991.jpg

影片信息

导演: 温子仁
编剧: 凯利·海斯 / 查德·海斯 / 温子仁 / 大卫·莱斯利·约翰逊-麦戈德里克
主演: 帕特里克·威尔森 / 维拉·法米加 / 麦迪逊·沃尔夫 / 弗兰西丝·奥康纳 / 劳伦·埃斯波西托 / [url=]更多...[/url]
类型: 剧情 / 悬疑 / 恐怖
官方网站: www.theconjuring2.com
制片国家/地区: 加拿大 / 美国 / 英国
语言: 台配国语 /  英语
上映日期: 2016-06-10(美国)
片长: 134分钟
又名: 诡屋惊凶实录2(港) / 厉阴宅2(台) / 招魂2:恩菲尔德吵闹鬼 / The Conjuring 2: The Enfield Poltergeist
IMDb链接: tt3065204


剧情介绍
看片子吧,剧透就没意思了......



剧照截图点击放大
慢慢游社区mmy.la_360截图20210317151541511.jpg
慢慢游社区mmy.la_The.Conjuring.2.2016.1080p.BluRay.H264.AAC-RARBG.mp4.png
  1. <p>General
  2. Unique ID                      : 106056831760056847070369425061978341536 (0x4FC9CD84E9ED3915AC3DF7F0071080A0)
  3. Complete name                  : G:\Users\hp\ZhaoHun合集\ZhaoHun2.The.Conjuring.2.2016.1080p.BluRay.H265.AC3.DD5.1-GYLZ.mkv
  4. Format                         : Matroska
  5. Format version                 : Version 4
  6. File size                      : 2.59 GiB
  7. Duration                       : 2 h 13 min
  8. Overall bit rate               : 2 774 kb/s
  9. Encoded date                   : UTC 2021-03-19 06:21:17
  10. Writing application            : mkvmerge v43.0.0 ('The Quartermaster') 64-bit
  11. Writing library                : libebml v1.3.10 + libmatroska v1.5.2</p><p>Video
  12. ID                             : 2
  13. Format                         : HEVC
  14. Format/Info                    : High Efficiency Video Coding
  15. Format profile                 : Main <a href="mailto:10@L4@Main">10@L4@Main</a>
  16. Codec ID                       : V_MPEGH/ISO/HEVC
  17. Duration                       : 2 h 13 min
  18. Bit rate                       : 2 292 kb/s
  19. Width                          : 1 920 pixels
  20. Height                         : 800 pixels
  21. Display aspect ratio           : 2.40:1
  22. Frame rate mode                : Constant
  23. Frame rate                     : 23.976 (24000/1001) FPS
  24. Color space                    : YUV
  25. Chroma subsampling             : 4:2:0
  26. Bit depth                      : 10 bits
  27. Bits/(Pixel*Frame)             : 0.062
  28. Stream size                    : 2.14 GiB (83%)
  29. Title                          : 原声视频
  30. Writing library                : x265 3.1.1+1-04b37fdfd2dc:[Windows][GCC 5.4.0][64 bit] 10bit
  31. Encoding settings              : cpuid=1111039 / frame-threads=3 / numa-pools=8 / wpp / no-pmode / no-pme / no-psnr / no-ssim / log-level=2 / input-csp=1 / input-res=1920x800 / interlace=0 / total-frames=0 / level-idc=0 / high-tier=1 / uhd-bd=0 / ref=2 / no-allow-non-conformance / no-repeat-headers / annexb / no-aud / no-hrd / info / hash=0 / no-temporal-layers / open-gop / min-keyint=24 / keyint=240 / gop-lookahead=0 / bframes=4 / b-adapt=0 / b-pyramid / bframe-bias=0 / rc-lookahead=15 / lookahead-slices=5 / scenecut=40 / radl=0 / no-splice / no-intra-refresh / ctu=64 / min-cu-size=8 / no-rect / no-amp / max-tu-size=32 / tu-inter-depth=1 / tu-intra-depth=1 / limit-tu=0 / rdoq-level=0 / dynamic-rd=0.00 / no-ssim-rd / signhide / no-tskip / nr-intra=0 / nr-inter=0 / no-constrained-intra / strong-intra-smoothing / max-merge=2 / limit-refs=3 / no-limit-modes / me=1 / subme=2 / merange=57 / temporal-mvp / weightp / no-weightb / no-analyze-src-pics / deblock=0:0 / sao / no-sao-non-deblock / rd=2 / early-skip / rskip / fast-intra / no-tskip-fast / no-cu-lossless / no-b-intra / no-splitrd-skip / rdpenalty=0 / psy-rd=2.00 / psy-rdoq=0.00 / no-rd-refine / no-lossless / cbqpoffs=0 / crqpoffs=0 / rc=crf / crf=19.0 / qcomp=0.60 / qpstep=4 / stats-write=0 / stats-read=0 / ipratio=1.40 / pbratio=1.30 / aq-mode=2 / aq-strength=1.00 / cutree / zone-count=0 / no-strict-cbr / qg-size=32 / no-rc-grain / qpmax=69 / qpmin=0 / no-const-vbv / sar=1 / overscan=0 / videoformat=5 / range=0 / colorprim=2 / transfer=2 / colormatrix=2 / chromaloc=0 / display-window=0cll=0,0 / min-luma=0 / max-luma=1023 / log2-max-poc-lsb=8 / vui-timing-info / vui-hrd-info / slices=1 / no-opt-qp-pps / no-opt-ref-list-length-pps / no-multi-pass-opt-rps / scenecut-bias=0.05 / no-opt-cu-delta-qp / no-aq-motion / no-hdr / no-hdr-opt / no-dhdr10-opt / no-idr-recovery-sei / analysis-reuse-level=5 / scale-factor=0 / refine-intra=0 / refine-inter=0 / refine-mv=0 / refine-ctu-distortion=0 / no-limit-sao / ctu-info=0 / no-lowpass-dct / refine-analysis-type=0 / copy-pic=1 / max-ausize-factor=1.0 / no-dynamic-refine / no-single-sei / no-hevc-aq / no-svt / no-field / qp-adaptation-range=1.00
  32. Language                       : English
  33. Default                        : Yes
  34. Forced                         : No
  35. Color range                    : Limited</p><p>Audio #1
  36. ID                             : 1
  37. Format                         : AC-3
  38. Format/Info                    : Audio Coding 3
  39. Commercial name                : Dolby Digital
  40. Codec ID                       : A_AC3
  41. Duration                       : 2 h 13 min
  42. Bit rate mode                  : Constant
  43. Bit rate                       : 256 kb/s
  44. Channel(s)                     : 6 channels
  45. Channel layout                 : L R C LFE Ls Rs
  46. Sampling rate                  : 48.0 kHz
  47. Frame rate                     : 31.250 FPS (1536 SPF)
  48. Compression mode               : Lossy
  49. Stream size                    : 245 MiB (9%)
  50. Title                          : 台配国语:DD5.1
  51. Language                       : Chinese
  52. Service kind                   : Complete Main
  53. Default                        : Yes
  54. Forced                         : No</p><p>Audio #2
  55. ID                             : 3
  56. Format                         : AAC LC
  57. Format/Info                    : Advanced Audio Codec Low Complexity
  58. Codec ID                       : A_AAC-2
  59. Duration                       : 2 h 13 min
  60. Bit rate                       : 224 kb/s
  61. Channel(s)                     : 6 channels
  62. Channel layout                 : C L R Ls Rs LFE
  63. Sampling rate                  : 48.0 kHz
  64. Frame rate                     : 46.875 FPS (1024 SPF)
  65. Compression mode               : Lossy
  66. Stream size                    : 215 MiB (8%)
  67. Title                          : 英语
  68. Language                       : English
  69. Default                        : No
  70. Forced                         : No</p><p>Text
  71. ID                             : 4
  72. Format                         : UTF-8
  73. Codec ID                       : S_TEXT/UTF8
  74. Codec ID/Info                  : UTF-8 Plain Text
  75. Duration                       : 2 h 8 min
  76. Bit rate                       : 35 b/s
  77. Count of elements              : 1381
  78. Stream size                    : 33.4 KiB (0%)
  79. Title                          : 简体中字
  80. Language                       : Chinese
  81. Default                        : Yes
  82. Forced                         : No</p><p>
  83. </p>
复制代码




百度盘去后缀.pdf



资源获取:链接:>>点击进入百度云下载<<(←购买前请先验证分享链接是否有效)


                             https://115.com/s/swnwxmo330z#





游客,需要您回复成为VIP才能查看隐藏内容













评分

参与人数 7游币 +83 精品值 +15 分享值 +7 收起 理由
admin + 50 + 15 + 1 慢慢游有你更精彩!
roanaldo + 3 + 1
古藤书斋 + 1
TS天高云淡 + 30 + 1 非常感谢大师制作分享高分电影!.
thj + 1
thisisanfield + 1
撒哈拉の夜空 + 1 如此棒的资源,不赞对不起慢慢游!.

查看全部评分

楼主精华帖
爱生活、爱电影、更爱慢慢游!
回复

使用道具 举报

签到天数: 32 天

[LV.5]常住居民I

130

主题

1082

帖子

4万

积分

Rank: 64Rank: 64Rank: 64Rank: 64Rank: 64Rank: 64Rank: 64Rank: 64Rank: 64Rank: 64Rank: 64Rank: 64Rank: 64Rank: 64Rank: 64Rank: 64

阅读权限
110
游币
38446
精品值
3670
热心值
1
分享值
164
在线时间
350 小时
注册时间
2019-7-1
最后登录
2021-4-20

活跃会员分享达人

发表于 2021-3-26 15:36:53 | 显示全部楼层
以前的台配国语不是5.1,感谢楼主分享!
回复 支持 反对

使用道具 举报

签到天数: 841 天

[LV.10]以坛为家III

7

主题

1578

帖子

2277

积分

Rank: 8Rank: 8

阅读权限
50
游币
251
精品值
0
热心值
0
分享值
27
在线时间
394 小时
注册时间
2018-8-13
最后登录
2021-4-20
发表于 2021-3-26 16:01:01 | 显示全部楼层
楼主发贴辛苦了,谢谢楼主的精彩分享!我觉得慢慢游是注册对了!
回复 支持 反对

使用道具 举报

签到天数: 609 天

[LV.9]以坛为家II

0

主题

2808

帖子

3756

积分

Rank: 8Rank: 8

阅读权限
50
游币
52
精品值
93
热心值
0
分享值
0
在线时间
710 小时
注册时间
2019-6-13
最后登录
2021-4-20
发表于 2021-3-26 16:02:39 | 显示全部楼层
楼主,我太崇拜你了!我想我是一天也不能离开慢慢游。
回复 支持 反对

使用道具 举报

签到天数: 184 天

[LV.7]常住居民III

1

主题

242

帖子

4183

积分

Rank: 16Rank: 16Rank: 16Rank: 16

阅读权限
70
游币
3393
精品值
239
热心值
0
分享值
6
在线时间
58 小时
注册时间
2020-10-9
最后登录
2021-4-19
发表于 2021-3-26 16:10:53 | 显示全部楼层
是哦,H265H266都是未来的趋势,高清小体积,谢谢版主周末佳片分享哈!!!
回复 支持 反对

使用道具 举报

签到天数: 1222 天

[LV.10]以坛为家III

198

主题

2146

帖子

9333

积分

Rank: 16Rank: 16Rank: 16Rank: 16

阅读权限
70
游币
2169
精品值
740
热心值
1
分享值
63
在线时间
3410 小时
注册时间
2017-12-2
最后登录
2021-4-20

最佳新人活跃会员热心会员推广达人天蝎座

发表于 2021-3-26 16:16:10 | 显示全部楼层
谢谢楼主分享,这部恐怖片超好看
回复 支持 反对

使用道具 举报

签到天数: 2254 天

[LV.Master]伴坛终老

22

主题

5319

帖子

2万

积分

Rank: 32Rank: 32Rank: 32Rank: 32Rank: 32Rank: 32Rank: 32Rank: 32

阅读权限
90
游币
16001
精品值
583
热心值
0
分享值
1
在线时间
2709 小时
注册时间
2014-12-10
最后登录
2021-4-20
发表于 2021-3-26 16:19:22 | 显示全部楼层
楼主,我太崇拜你了!我想我是一天也不能离开慢慢游。
回复 支持 反对

使用道具 举报

签到天数: 186 天

[LV.7]常住居民III

283

主题

4048

帖子

9634

积分

Rank: 16Rank: 16Rank: 16Rank: 16

阅读权限
70
游币
3917
精品值
101
热心值
0
分享值
12
在线时间
1443 小时
注册时间
2017-2-20
最后登录
2021-4-20

热心会员灌水之王

发表于 2021-3-26 16:27:10 | 显示全部楼层
本资源找了很久了,终于在慢慢游找到,感谢您的分享。祝慢慢游越来越好!
回复 支持 反对

使用道具 举报

签到天数: 1856 天

[LV.Master]伴坛终老

29

主题

4345

帖子

1万

积分

Rank: 32Rank: 32Rank: 32Rank: 32Rank: 32Rank: 32Rank: 32Rank: 32

阅读权限
90
游币
8104
精品值
0
热心值
0
分享值
13
在线时间
1806 小时
注册时间
2016-1-16
最后登录
2021-4-20

活跃会员热心会员

发表于 2021-3-26 17:47:26 | 显示全部楼层
感谢楼主分享资源。
回复 支持 反对

使用道具 举报

签到天数: 1966 天

[LV.Master]伴坛终老

40

主题

5029

帖子

9305

积分

Rank: 32Rank: 32Rank: 32Rank: 32Rank: 32Rank: 32Rank: 32Rank: 32

阅读权限
90
游币
2441
精品值
32
热心值
2
分享值
46
在线时间
1675 小时
注册时间
2015-1-31
最后登录
2021-4-20

活跃会员热心会员

发表于 2021-3-26 17:51:00 | 显示全部楼层
楼主发贴辛苦了,谢谢楼主的精彩分享!我觉得慢慢游是注册对了!
回复 支持 反对

使用道具 举报

回帖须知
本站严禁灌水回复以及讽刺辱骂分享者的行为,轻者扣分警告,重者直接永久封禁。发帖前请详读:点击进入 。以免永久封禁。
 懒得打字?点击快捷回复➔➔ 
您需要登录后才可以回帖 登录 | 我要注册

本版积分规则

小黑屋|手机版|慢慢游社区 ( 站务处理service@mmyfilm.com )

GMT+8, 2021-4-20 18:47 , Processed in 0.308622 second(s), 31 queries .

Powered by Discuz! X3.4

© 2001-2013 Comsenz Inc.

快速回复 返回顶部 返回列表