慢慢游社区

 找回密码
 我要注册
搜索
查看: 12671|回复: 647

[已封装] [百度云][流感/致命感冒(国韩双语)].The.Flu.2013.BluRay.720p.x264.2Audio[3.44G]

  [复制链接]

签到天数: 843 天

[LV.10]以坛为家III

33

主题

1198

帖子

3万

积分

Rank: 32Rank: 32Rank: 32Rank: 32Rank: 32Rank: 32Rank: 32Rank: 32

阅读权限
90
游币
32093
精品值
788
热心值
0
分享值
7
在线时间
876 小时
注册时间
2016-1-31
最后登录
2021-4-18

活跃会员热心会员突出贡献风度翩翩勋章

发表于 2016-3-11 22:46:15 | 显示全部楼层 |阅读模式
本帖最后由 JMDZ 于 2016-3-11 22:46 编辑
精品区已有52KHD版,原帖:http://www.mmybt.com/thread-56633-1-1.html
本人采用更高码CMCT视频重新做了一版,台配取自灵感工作室,
字幕已重新修正,免费与大家分享。

韩国人确实会拍,能拍,敢拍,这种病毒灾难片不亚于好莱坞。
慢慢游社区mmy.la_0.jpg
◎译  名 流感/战疫(港)/致命感冒
◎片  名 The Flu
◎年  代 2013
◎国  家 韩国
◎类  别 动作/剧情/冒险
◎语  言 韩语
◎字  幕 中文
◎IMDB评分 6.8/10 from 496 users
◎文件格式 BD-RMVB
◎视频尺寸 1280 x 720
◎文件大小 1CD
◎片  长 122 min
◎导  演 金成洙 Sung-su Kim
◎主  演 张赫 Hyuk Jang
      秀爱 Ae Su
      朴孝朱 Hyo-ju Park
      车仁表 In-pyo Cha
      李相烨 Sang-yeop Lee
      李熙俊 Hee-joon Lee
      Andrew William Brand ....Dr. Bill Backman
      Yoo Hae-jin ....Bae Kyung-ub
      朴敏荷 Min-ah Park ....Kim Mi-reu
      Boris Stout ....Leo Snyder
      Kahlid Elijah Tapia ....Sgt. Andrews

◎简  介

  一群东南亚偷渡客历经艰险来到韩国,但是整个集装箱内的偷渡客几乎全部死亡,只有一人拖着羸弱的身体侥幸逃入闹市之中。殊不知此人身上携带致命猪流感病毒,短短一天时间,病毒迅速蔓延城市的各个角落。许多人在不知不觉间被感染,进而将死亡的阴影引向周围所有的人。美丽的女医生金仁海(秀爱 饰)是一位单身妈妈,她不久前遭遇一场车祸,幸被消防队救援人员姜智久(张赫 饰)救出,却因丢失重要论文资料而备受上司苛责。值此期间,韩国蛇头的弟弟因流感送入仁海的医院治疗,经诊断终于发现流感的起因,死尸横陈的集装箱无疑成为查找病源的关键。

  未过多久,猪流感病毒成几何式爆发蔓延,坐享太平的民众面临前所未有的灾难…
  1. General
  2. Unique ID                      : 190838114947843138861002493888705433033 (0x8F921581BC1DFEA2A8F039CD96F98DC9)
  3. Complete name                  : F:\视频\致命感冒.mkv
  4. Format                         : Matroska
  5. Format version                 : Version 4 / Version 2
  6. File size                      : 3.44 GiB
  7. Duration                       : 2h 1mn
  8. Overall bit rate               : 4 047 Kbps
  9. Movie name                     : 灵感工作室荣誉出品 www.lggzs.com
  10. Encoded date                   : UTC 2016-03-09 09:09:44
  11. Writing application            : mkvmerge v6.5.0 ('Isn't she lovely') built on Oct 20 2013 12:50:05
  12. Writing library                : libebml v1.3.0 + libmatroska v1.4.1
  13. Attachments                    : cronospro.otf / hwkaiti.ttf

  14. Video
  15. ID                             : 1
  16. Format                         : AVC
  17. Format/Info                    : Advanced Video Codec
  18. Format profile                 : High@L4.1
  19. Format settings, CABAC         : Yes
  20. Format settings, ReFrames      : 8 frames
  21. Codec ID                       : V_MPEG4/ISO/AVC
  22. Duration                       : 2h 1mn
  23. Bit rate                       : 3 200 Kbps
  24. Width                          : 1 280 pixels
  25. Height                         : 720 pixels
  26. Display aspect ratio           : 16:9
  27. Frame rate mode                : Constant
  28. Frame rate                     : 23.976 (24000/1001) fps
  29. Color space                    : YUV
  30. Chroma subsampling             : 4:2:0
  31. Bit depth                      : 8 bits
  32. Scan type                      : Progressive
  33. Bits/(Pixel*Frame)             : 0.145
  34. Stream size                    : 2.67 GiB (77%)
  35. Writing library                : x264 core 129 r2230 1cffe9f
  36. Encoding settings              : cabac=1 / ref=8 / deblock=1:-2:-2 / analyse=0x3:0x133 / me=umh / subme=10 / psy=1 / psy_rd=1.00:0.00 / mixed_ref=1 / me_range=48 / chroma_me=1 / trellis=2 / 8x8dct=1 / cqm=0 / deadzone=21,11 / fast_pskip=0 / chroma_qp_offset=-1 / threads=6 / lookahead_threads=1 / sliced_threads=0 / nr=0 / decimate=1 / interlaced=0 / bluray_compat=0 / constrained_intra=0 / bframes=6 / b_pyramid=2 / b_adapt=2 / b_bias=0 / direct=3 / weightb=1 / open_gop=0 / weightp=2 / keyint=250 / keyint_min=24 / scenecut=40 / intra_refresh=0 / rc_lookahead=60 / rc=2pass / mbtree=1 / bitrate=3200 / ratetol=1.0 / qcomp=0.60 / qpmin=0 / qpmax=69 / qpstep=4 / cplxblur=20.0 / qblur=0.5 / vbv_maxrate=50000 / vbv_bufsize=50000 / nal_hrd=none / ip_ratio=1.40 / aq=2:0.90
  37. Default                        : Yes
  38. Forced                         : No

  39. Audio #1
  40. ID                             : 2
  41. Format                         : MPEG Audio
  42. Format version                 : Version 1
  43. Format profile                 : Layer 3
  44. Mode                           : Joint stereo
  45. Codec ID                       : A_MPEG/L3
  46. Codec ID/Hint                  : MP3
  47. Duration                       : 2h 1mn
  48. Bit rate mode                  : Constant
  49. Bit rate                       : 192 Kbps
  50. Channel(s)                     : 2 channels
  51. Sampling rate                  : 48.0 KHz
  52. Compression mode               : Lossy
  53. Stream size                    : 167 MiB (5%)
  54. Title                          : 国语
  55. Language                       : Chinese
  56. Default                        : No
  57. Forced                         : Yes

  58. Audio #2
  59. ID                             : 3
  60. Format                         : AC-3
  61. Format/Info                    : Audio Coding 3
  62. Mode extension                 : CM (complete main)
  63. Format settings, Endianness    : Big
  64. Codec ID                       : A_AC3
  65. Duration                       : 2h 1mn
  66. Bit rate mode                  : Constant
  67. Bit rate                       : 640 Kbps
  68. Channel(s)                     : 6 channels
  69. Channel positions              : Front: L C R, Side: L R, LFE
  70. Sampling rate                  : 48.0 KHz
  71. Frame rate                     : 31.250 fps (1536 spf)
  72. Compression mode               : Lossy
  73. Stream size                    : 558 MiB (16%)
  74. Title                          : 韩语
  75. Language                       : Korean
  76. Default                        : Yes
  77. Forced                         : No

  78. Text #1
  79. ID                             : 4
  80. Format                         : ASS
  81. Codec ID                       : S_TEXT/ASS
  82. Codec ID/Info                  : Advanced Sub Station Alpha
  83. Compression mode               : Lossless
  84. Title                          : 简体
  85. Default                        : Yes
  86. Forced                         : No

  87. Text #2
  88. ID                             : 5
  89. Format                         : ASS
  90. Codec ID                       : S_TEXT/ASS
  91. Codec ID/Info                  : Advanced Sub Station Alpha
  92. Compression mode               : Lossless
  93. Title                          : 繁体
  94. Default                        : No
  95. Forced                         : No
复制代码
截    图
慢慢游社区mmy.la_1.jpg 慢慢游社区mmy.la_2.JPG 慢慢游社区mmy.la_3.JPG 慢慢游社区mmy.la_4.JPG 慢慢游社区mmy.la_5.JPG 慢慢游社区mmy.la_6.JPG

下载地址
游客,需要您回复成为VIP才能查看隐藏内容


点评

非常棒!!!  发表于 2020-1-26 20:20

评分

参与人数 4 +50 游币 +70 +50 精品值 +15 分享值 +3 收起 理由
789666 + 20 + 1 慢慢游有你更精彩!
逍遥御 + 1 慢慢游有你更精彩!
realwazy + 1 慢慢游有你更精彩!
admin + 50 + 50 + 50 + 15 慢慢游有你们会更精彩!

查看全部评分

楼主精华帖
回复

使用道具 举报

签到天数: 1585 天

[LV.Master]伴坛终老

0

主题

4249

帖子

6651

积分

Rank: 16Rank: 16Rank: 16Rank: 16

阅读权限
70
游币
1307
精品值
0
热心值
0
分享值
0
在线时间
1095 小时
注册时间
2014-4-20
最后登录
2021-1-27
发表于 2016-3-11 23:04:52 | 显示全部楼层
非常感谢楼主的慷慨分享。
回复 支持 反对

使用道具 举报

签到天数: 982 天

[LV.10]以坛为家III

82

主题

4432

帖子

2万

积分

Rank: 32Rank: 32Rank: 32Rank: 32Rank: 32Rank: 32Rank: 32Rank: 32

阅读权限
90
游币
19412
精品值
9
热心值
0
分享值
0
在线时间
1120 小时
注册时间
2013-11-6
最后登录
2021-4-21
发表于 2016-3-11 23:08:42 | 显示全部楼层
谢谢楼主发帖,好资源啊!辛苦了!
回复 支持 反对

使用道具 举报

签到天数: 545 天

[LV.9]以坛为家II

60

主题

2055

帖子

2万

积分

Rank: 32Rank: 32Rank: 32Rank: 32Rank: 32Rank: 32Rank: 32Rank: 32

阅读权限
90
游币
18027
精品值
413
热心值
0
分享值
99
在线时间
427 小时
注册时间
2012-11-26
最后登录
2021-4-18

最佳新人活跃会员热心会员

发表于 2016-3-11 23:22:51 | 显示全部楼层
谢谢楼主分享!!!!
回复 支持 反对

使用道具 举报

签到天数: 1536 天

[LV.Master]伴坛终老

677

主题

2408

帖子

13万

积分

Rank: 64Rank: 64Rank: 64Rank: 64Rank: 64Rank: 64Rank: 64Rank: 64Rank: 64Rank: 64Rank: 64Rank: 64Rank: 64Rank: 64Rank: 64Rank: 64

阅读权限
150
游币
130556
精品值
2582
热心值
0
分享值
125
在线时间
685 小时
注册时间
2016-1-19
最后登录
2021-4-21

最佳新人活跃会员热心会员推广达人宣传达人突出贡献优秀版主音频组专属勋章

发表于 2016-3-11 23:46:14 | 显示全部楼层
很好的资源,收藏了,谢谢楼主,谢谢。
回复 支持 反对

使用道具 举报

签到天数: 1710 天

[LV.Master]伴坛终老

2

主题

4361

帖子

9668

积分

Rank: 16Rank: 16Rank: 16Rank: 16

阅读权限
70
游币
4273
精品值
102
热心值
0
分享值
0
在线时间
830 小时
注册时间
2015-3-2
最后登录
2021-4-21
发表于 2016-3-12 00:06:02 | 显示全部楼层
不错,辛苦发帖,分享一下。
回复 支持 反对

使用道具 举报

签到天数: 1710 天

[LV.Master]伴坛终老

2

主题

4361

帖子

9668

积分

Rank: 16Rank: 16Rank: 16Rank: 16

阅读权限
70
游币
4273
精品值
102
热心值
0
分享值
0
在线时间
830 小时
注册时间
2015-3-2
最后登录
2021-4-21
发表于 2016-3-12 00:06:46 | 显示全部楼层
辛苦发帖,分享一下。
回复 支持 反对

使用道具 举报

签到天数: 1549 天

[LV.Master]伴坛终老

0

主题

2350

帖子

3326

积分

Rank: 8Rank: 8

阅读权限
50
游币
60
精品值
9
热心值
0
分享值
0
在线时间
882 小时
注册时间
2013-12-25
最后登录
2021-3-11
发表于 2016-3-12 00:15:45 | 显示全部楼层
啥子电影,看一下。顶楼主
回复 支持 反对

使用道具 举报

签到天数: 1754 天

[LV.Master]伴坛终老

153

主题

2763

帖子

5万

积分

一个一直走在路上寂寞并快乐着的影视工作者

Rank: 64Rank: 64Rank: 64Rank: 64Rank: 64Rank: 64Rank: 64Rank: 64Rank: 64Rank: 64Rank: 64Rank: 64Rank: 64Rank: 64Rank: 64Rank: 64

阅读权限
255
游币
17118
精品值
13965
热心值
3
分享值
483
在线时间
1825 小时
注册时间
2015-10-16
最后登录
2021-4-22

活跃会员热心会员突出贡献正太勋章色狼勋章猥琐勋章大叔勋章音频组专属勋章爱心勋章灌水之王最佳新人子鼠御姐勋章色女勋章纯洁勋章萝莉勋章处女座卯兔射手座

发表于 2016-3-12 00:27:44 | 显示全部楼层
兄弟不错,多多努力,感谢分享~~~
爱生活、爱电影、更爱慢慢游!
回复 支持 反对

使用道具 举报

签到天数: 2355 天

[LV.Master]伴坛终老

9

主题

3388

帖子

3万

积分

Rank: 64Rank: 64Rank: 64Rank: 64Rank: 64Rank: 64Rank: 64Rank: 64Rank: 64Rank: 64Rank: 64Rank: 64Rank: 64Rank: 64Rank: 64Rank: 64

阅读权限
150
游币
27769
精品值
182
热心值
0
分享值
0
在线时间
610 小时
注册时间
2013-3-19
最后登录
2021-4-21
发表于 2016-3-12 00:32:03 | 显示全部楼层
韩国人确实敢拍,而且还敢把韩国人的弱点全暴露出来
回复 支持 反对

使用道具 举报

回帖须知
本站严禁灌水回复以及讽刺辱骂分享者的行为,轻者扣分警告,重者直接永久封禁。发帖前请详读:点击进入 。以免永久封禁。
 懒得打字?点击快捷回复➔➔ 
您需要登录后才可以回帖 登录 | 我要注册

本版积分规则

小黑屋|手机版|慢慢游社区 ( 站务处理service@mmyfilm.com )

GMT+8, 2021-4-22 06:01 , Processed in 0.170136 second(s), 33 queries .

Powered by Discuz! X3.4

© 2001-2013 Comsenz Inc.

快速回复 返回顶部 返回列表