慢慢游社区

 找回密码
 我要注册
搜索
查看: 410|回复: 7

[已封装] 完美无瑕.Flawless.2007.BD.720p.x264.AC3-jack【国英双语】【2.93G】

[复制链接]

签到天数: 1158 天

[LV.10]以坛为家III

21

主题

2023

帖子

5005

积分

Rank: 16Rank: 16Rank: 16Rank: 16

阅读权限
70
游币
2025
精品值
42
热心值
0
分享值
27
在线时间
819 小时
注册时间
2013-6-20
最后登录
2021-4-20
发表于 2021-3-11 16:36:24 | 显示全部楼层 |阅读模式
本帖最后由 jiajia28a 于 2021-3-12 12:34 编辑
自压作品,原盘来自网络
慢慢游社区mmy.la_123.jpg

※※※※※※※ 影片信息 ※※※※※※※

【影片原名】Flawless
【中文译名】完美无瑕/天衣无缝
【出品公司】Blue Sky Media
【出品年代】2007
【上映日期】2008年3月28日  美国  
【影片级别】USA:PG-13               
【官方网站】http://www.flawlessfilm.com/
【IMDB链接】http://www.imdb.com/title/tt0780516
【IMDB评分】6.8/10 (5,946 votes)
【国  家】英国/卢森堡
【类  别】剧情/犯罪
【导  演】迈克尔·莱德福 Michael Radford
【主  演】黛咪·摩尔 Demi Moore....Laura Quinn
      迈克尔·凯恩 Michael Caine....Mr. Hobbs
      朗贝尔·维尔森 Lambert Wilson....Finch
      Simon Day ....Boland
      Constantine Gregory ....Dmitriev
      尼古拉斯·琼斯 Nicholas Jones....Jameson
      Derren Nesbitt ....Sinclair
      内森奈尔·帕克 Nathaniel Parker....Ollie
      Steve Preston ....Investigator
      Ben Righton ....Bryan
      彼得·雷尼克 Peter Rnic....Honest Alfred - The Bookie
      Claire Thill ....Secretary
      Roya Zargar ....Trudy′s Friend
      Josef d'Bache-Kane ....Street Bystander
      David Henry ....Sir Edmund Gottfried
      Kim Hermans ....Spectator at dograce
      Kevan Willis ....Lewis
      Joss Ackland ....Milton Kendrick Ashtoncroft
      Jonathan Aris ....Boyle

※※※※※※※ 资料信息 ※※※※※※※

故事发生在1960年代的伦敦,黛咪·摩尔饰演的劳拉是伦敦钻石公司的一位女主管,她聪明而美丽,在公司里勤勤恳恳工作了很多年,然而眼睁睁看着一个个能力不如她的家伙都受到提升,自己却仍在原地徘徊,这使她备受打击。迈克尔·凯恩饰演一个夜间看门人,同样在这个公司工作了很久,对于大多数人而言,他就像个隐形人,几乎没人曾注意过他。然而通过这些年在公司的经历,他已经逐渐摸索出公司运转的知识。现在,面临退休的他打算干票大买卖,拉劳拉入伙,与自己一起偷盗他们共同的雇主——伦敦钻石公司。他的计划能成功吗?
  1. General
  2. Unique ID                      : 268417114011914786525098300782997437947 (0xC9EF4178947B8A7648EA615FAD087DFB)
  3. Complete name                  : D:\完美无暇.国英双语\[完美无瑕].Flawless.2007.BluRay.720p.x264.AC3.2Audios-jack.mkv
  4. Format                         : Matroska
  5. Format version                 : Version 4
  6. File size                      : 2.94 GiB
  7. Duration                       : 1 h 48 min
  8. Overall bit rate               : 3 871 kb/s
  9. Encoded date                   : UTC 2021-03-11 00:38:06
  10. Writing application            : mkvmerge v42.0.0 ('Overtime') 64-bit
  11. Writing library                : libebml v1.3.10 + libmatroska v1.5.2
  12. Attachments                    : segoepr.ttf / 华文楷体.ttf

  13. Video
  14. ID                             : 1
  15. Format                         : AVC
  16. Format/Info                    : Advanced Video Codec
  17. Format profile                 : High@L4.1
  18. Format settings                : CABAC / 4 Ref Frames
  19. Format settings, CABAC         : Yes
  20. Format settings, Reference fra : 4 frames
  21. Codec ID                       : V_MPEG4/ISO/AVC
  22. Duration                       : 1 h 48 min
  23. Bit rate                       : 2 958 kb/s
  24. Width                          : 1 280 pixels
  25. Height                         : 720 pixels
  26. Display aspect ratio           : 16:9
  27. Frame rate mode                : Constant
  28. Frame rate                     : 23.976 (24000/1001) FPS
  29. Color space                    : YUV
  30. Chroma subsampling             : 4:2:0
  31. Bit depth                      : 8 bits
  32. Scan type                      : Progressive
  33. Bits/(Pixel*Frame)             : 0.134
  34. Stream size                    : 2.25 GiB (76%)
  35. Writing library                : x264 core 115 r1995 c1e60b9
  36. Encoding settings              : cabac=1 / ref=4 / deblock=1:-2:-2 / analyse=0x3:0x113 / me=hex / subme=7 / psy=1 / psy_rd=1.00:0.00 / mixed_ref=1 / me_range=16 / chroma_me=1 / trellis=1 / 8x8dct=1 / cqm=0 / deadzone=21,11 / fast_pskip=1 / chroma_qp_offset=-2 / threads=12 / sliced_threads=0 / nr=0 / decimate=1 / interlaced=0 / bluray_compat=0 / constrained_intra=0 / bframes=3 / b_pyramid=2 / b_adapt=1 / b_bias=0 / direct=1 / weightb=1 / open_gop=0 / weightp=2 / keyint=250 / keyint_min=23 / scenecut=40 / intra_refresh=0 / rc_lookahead=40 / rc=2pass / mbtree=1 / bitrate=2958 / ratetol=1.0 / qcomp=0.60 / qpmin=0 / qpmax=69 / qpstep=4 / cplxblur=20.0 / qblur=0.5 / ip_ratio=1.40 / aq=1:1.00
  37. Language                       : Chinese
  38. Default                        : Yes
  39. Forced                         : No

  40. Audio #1
  41. ID                             : 2
  42. Format                         : AC-3
  43. Format/Info                    : Audio Coding 3
  44. Commercial name                : Dolby Digital
  45. Codec ID                       : A_AC3
  46. Duration                       : 1 h 48 min
  47. Bit rate mode                  : Constant
  48. Bit rate                       : 448 kb/s
  49. Channel(s)                     : 6 channels
  50. Channel layout                 : L R C LFE Ls Rs
  51. Sampling rate                  : 48.0 kHz
  52. Frame rate                     : 31.250 FPS (1536 SPF)
  53. Compression mode               : Lossy
  54. Stream size                    : 348 MiB (12%)
  55. Title                          : 国配
  56. Language                       : Chinese
  57. Service kind                   : Complete Main
  58. Default                        : Yes
  59. Forced                         : Yes

  60. Audio #2
  61. ID                             : 3
  62. Format                         : AC-3
  63. Format/Info                    : Audio Coding 3
  64. Commercial name                : Dolby Digital
  65. Codec ID                       : A_AC3
  66. Duration                       : 1 h 48 min
  67. Bit rate mode                  : Constant
  68. Bit rate                       : 448 kb/s
  69. Channel(s)                     : 6 channels
  70. Channel layout                 : L R C LFE Ls Rs
  71. Sampling rate                  : 48.0 kHz
  72. Frame rate                     : 31.250 FPS (1536 SPF)
  73. Compression mode               : Lossy
  74. Stream size                    : 348 MiB (12%)
  75. Title                          : 英语
  76. Language                       : English
  77. Service kind                   : Complete Main
  78. Default                        : No
  79. Forced                         : No

  80. Text #1
  81. ID                             : 4
  82. Format                         : ASS
  83. Codec ID                       : S_TEXT/ASS
  84. Codec ID/Info                  : Advanced Sub Station Alpha
  85. Duration                       : 1 h 44 min
  86. Bit rate                       : 215 b/s
  87. Count of elements              : 1182
  88. Compression mode               : Lossless
  89. Stream size                    : 166 KiB (0%)
  90. Title                          : 中上英下
  91. Language                       : Chinese
  92. Default                        : Yes
  93. Forced                         : No

  94. Text #2
  95. ID                             : 5
  96. Format                         : ASS
  97. Codec ID                       : S_TEXT/ASS
  98. Codec ID/Info                  : Advanced Sub Station Alpha
  99. Duration                       : 1 h 44 min
  100. Bit rate                       : 206 b/s
  101. Count of elements              : 1182
  102. Compression mode               : Lossless
  103. Stream size                    : 159 KiB (0%)
  104. Title                          : 英上中下
  105. Language                       : Chinese
  106. Default                        : No
  107. Forced                         : No

  108. Text #3
  109. ID                             : 6
  110. Format                         : UTF-8
  111. Codec ID                       : S_TEXT/UTF8
  112. Codec ID/Info                  : UTF-8 Plain Text
  113. Duration                       : 1 h 41 min
  114. Bit rate                       : 46 b/s
  115. Count of elements              : 1180
  116. Stream size                    : 34.5 KiB (0%)
  117. Title                          : 中文字幕
  118. Language                       : Chinese
  119. Default                        : No
  120. Forced                         : No

  121. Text #4
  122. ID                             : 7
  123. Format                         : UTF-8
  124. Codec ID                       : S_TEXT/UTF8
  125. Codec ID/Info                  : UTF-8 Plain Text
  126. Duration                       : 1 h 41 min
  127. Bit rate                       : 56 b/s
  128. Count of elements              : 1177
  129. Stream size                    : 42.2 KiB (0%)
  130. Title                          : 英文字幕
  131. Language                       : English
  132. Default                        : No
  133. Forced                         : No

  134. Text #5
  135. ID                             : 8
  136. Format                         : UTF-8
  137. Codec ID                       : S_TEXT/UTF8
  138. Codec ID/Info                  : UTF-8 Plain Text
  139. Duration                       : 1 h 44 min
  140. Bit rate                       : 103 b/s
  141. Count of elements              : 1182
  142. Stream size                    : 79.2 KiB (0%)
  143. Title                          : 中英字幕
  144. Language                       : Chinese
  145. Default                        : No
  146. Forced                         : No

复制代码
慢慢游社区mmy.la_[完美无瑕].Flawless.2007.BluRay.720p.x264.AC3.2Audios-jack.mkv.jpg

链接:>>点击进入百度云下载<<(←购买前请先验证分享链接是否有效)
此处内容付费可见

点击下方支付。






点评

注明出处  发表于 2021-3-11 18:59

评分

参与人数 2分享值 +2 收起 理由
冷月清霜 + 1 资源很给力!
guiguzhi2020 + 1 慢慢游有你更精彩!

查看全部评分

楼主精华帖
回复

使用道具 举报

签到天数: 30 天

[LV.5]常住居民I

4

主题

45

帖子

1311

积分

Rank: 8Rank: 8

阅读权限
50
游币
1242
精品值
0
热心值
0
分享值
4
在线时间
16 小时
注册时间
2020-2-17
最后登录
2021-3-12
发表于 2021-3-11 16:40:48 | 显示全部楼层
好东西,下来看看,多谢。
回复 支持 反对

使用道具 举报

签到天数: 554 天

[LV.9]以坛为家II

147

主题

869

帖子

4万

积分

Rank: 64Rank: 64Rank: 64Rank: 64Rank: 64Rank: 64Rank: 64Rank: 64Rank: 64Rank: 64Rank: 64Rank: 64Rank: 64Rank: 64Rank: 64Rank: 64

阅读权限
110
游币
39094
精品值
130
热心值
0
分享值
98
在线时间
886 小时
注册时间
2019-8-20
最后登录
2021-4-20

活跃会员

发表于 2021-3-12 19:22:59 来自手机 | 显示全部楼层
默认是国语吗???
回复 支持 反对

使用道具 举报

签到天数: 609 天

[LV.9]以坛为家II

0

主题

2808

帖子

3756

积分

Rank: 8Rank: 8

阅读权限
50
游币
52
精品值
93
热心值
0
分享值
0
在线时间
710 小时
注册时间
2019-6-13
最后登录
2021-4-20
发表于 2021-3-16 08:53:49 | 显示全部楼层
楼主,大恩不言谢了!慢慢游是最棒的!
回复 支持 反对

使用道具 举报

签到天数: 609 天

[LV.9]以坛为家II

0

主题

2808

帖子

3756

积分

Rank: 8Rank: 8

阅读权限
50
游币
52
精品值
93
热心值
0
分享值
0
在线时间
710 小时
注册时间
2019-6-13
最后登录
2021-4-20
发表于 2021-3-16 10:17:56 | 显示全部楼层
楼主太厉害了!这个资源都能找到,辛苦了!我觉得慢慢游真是个好地方!
回复 支持 反对

使用道具 举报

签到天数: 578 天

[LV.9]以坛为家II

0

主题

640

帖子

2380

积分

Rank: 8Rank: 8

阅读权限
50
游币
1559
精品值
0
热心值
0
分享值
0
在线时间
182 小时
注册时间
2012-11-9
最后登录
2021-4-20
发表于 2021-4-5 20:09:21 来自手机 | 显示全部楼层
经典惊悚电影
回复 支持 反对

使用道具 举报

签到天数: 722 天

[LV.9]以坛为家II

0

主题

4075

帖子

6862

积分

Rank: 16Rank: 16Rank: 16Rank: 16

阅读权限
70
游币
2333
精品值
4
热心值
0
分享值
0
在线时间
446 小时
注册时间
2019-4-6
最后登录
2021-4-20
发表于 前天 08:00 | 显示全部楼层
楼主发贴辛苦了,谢谢楼主的精彩分享!我觉得慢慢游是注册对了!
回复 支持 反对

使用道具 举报

回帖须知
本站严禁灌水回复以及讽刺辱骂分享者的行为,轻者扣分警告,重者直接永久封禁。发帖前请详读:点击进入 。以免永久封禁。
 懒得打字?点击快捷回复➔➔ 
您需要登录后才可以回帖 登录 | 我要注册

本版积分规则

小黑屋|手机版|慢慢游社区 ( 站务处理service@mmyfilm.com )

GMT+8, 2021-4-20 17:18 , Processed in 0.580725 second(s), 35 queries .

Powered by Discuz! X3.4

© 2001-2013 Comsenz Inc.

快速回复 返回顶部 返回列表